BitTorrentTracker PerecTracker.org
BitTorrentTracker PerecTracker.org
    
Регистрация  ·  Вход
 
 · 
Забыли пароль?

  • Принцесса на горошине / Die Prinzessin auf der Erbse (Бодо Фюрнайзен / Bodo Fürneisen) [2010, Германия, фэнтези, семейный, HDTV 1080i] DVO + Original Ger

    Ответить на тему
     
    Автор Сообщение

    Light

    Создавать темы 31-Июл-2016 21:02

           

    [Цитировать]

    Принцесса на горошине / Die Prinzessin auf der ErbseЛучшие волшебные сказкиСтрана: Германия
    Студия: ANTAEUS Film- und Fernsehproduktionsgesellschaft mbH, Rundfunk Berlin-Brandenburg (RBB)
    Жанр: фэнтези, семейный
    Год выпуска: 2010
    Продолжительность: 00:58:30
    Перевод: Профессиональный (двухголосый закадровый) Игмар
    Cубтитры: нет
    Оригинальная аудиодорожка: немецкий
    Режиссер: Бодо Фюрнайзен / Bodo Fürneisen
    В ролях: Рик Клостер, Роберт Гвиздек, Айрис Бербен, Михаэль Гвиздек, Давид К. Буннерс, Рената Рихтер, Ульрих Виггерс, Томас Арнольд
    Питер Циммерман, Альфонс Еше
    Описание: Королевству грозит катастрофа: жадная и нечестная на руку сестра короля вознамерилась унаследовать трон. Согласно старинному договору, король в свой семидесятый день рождения должен уйти в отставку, чтобы освободить трон для своего сына. Однако для того, чтобы стать королём, молодой принц должен жениться в день своей коронации. До дня рождения короля осталось не так много времени, а принц, который хочет жениться только по любви, ещё не определился с выбором невесты…

    Сэмпл: http://sendfile.su/1254105
    Тип релиза: HDTV 1080i
    Контейнер: TS
    Видео: AVC/H.264, PAL, 1920х1080 (16:9), 25 fps, 9451 Кбит/сек
    Аудио 1: русский, MP2, 48000 Hz, 192 Кбит/сек, 2 ch
    Аудио 2: немецкий, AC3, 48000 Hz, 224 Кбит/сек, 2 ch

    MediaInfo

    Общее
    Идентификатор : 1 (0x1)
    Полное имя : C:\Users\User\Desktop\Die Prinzessin auf der Erbse.ts
    Формат : MPEG-TS
    Размер файла : 4,24 Гбайт
    Продолжительность : 58 м.
    Режим общего битрейта : Переменный
    Общий поток : 10,4 Мбит/сек
    Максимальный общий битрейт : 35,5 Мбит/сек
    Видео
    Идентификатор : 4113 (0x1011)
    Идентификатор меню : 1 (0x1)
    Формат : AVC
    Формат/Информация : Advanced Video Codec
    Профиль формата : Main@L4.0
    Параметр CABAC формата : Да
    Параметр ReFrames формата : 4 кадра
    Параметр GOP формата : M=1, N=32
    Идентификатор кодека : 27
    Продолжительность : 58 м.
    Вид битрейта : Переменный
    Битрейт : 9451 Кбит/сек
    Максимальный битрейт : 40,0 Мбит/сек
    Ширина : 1920 пикселей
    Высота : 1080 пикселей
    Соотношение сторон : 16:9
    Частота кадров : 25,000 кадров/сек
    Цветовое пространство : YUV
    Субдискретизация насыщенности : 4:2:0
    Битовая глубина : 8 бит
    Тип развёртки : Чересстрочная
    Порядок развёртки : Верхнее поле первое
    Бит/(Пиксели*Кадры) : 0.182
    Размер потока : 3,86 Гбайт (91%)
    Основные цвета : BT.709
    Характеристики трансфера : BT.709
    Коэффициенты матрицы : BT.709
    colour_range : Limited
    Аудио #1
    Идентификатор : 4352 (0x1100)
    Идентификатор меню : 1 (0x1)
    Формат : MPEG Audio
    Версия формата : Version 1
    Профиль формата : Layer 2
    Идентификатор кодека : 4
    Продолжительность : 58 м.
    Вид битрейта : Постоянный
    Битрейт : 192 Кбит/сек
    Каналы : 2 канала
    Частота : 48,0 КГц
    Метод сжатия : С потерями
    Размер потока : 80,3 Мбайт (2%)
    Язык : Russian
    Аудио #2
    Идентификатор : 4353 (0x1101)
    Идентификатор меню : 1 (0x1)
    Формат : AC-3
    Формат/Информация : Audio Coding 3
    Расширение режима : CM (complete main)
    Параметр Endianness формата : Big
    Идентификатор кодека : 129
    Продолжительность : 58 м.
    Вид битрейта : Постоянный
    Битрейт : 224 Кбит/сек
    Каналы : 2 канала
    Расположение каналов : Front: L R
    Частота : 48,0 КГц
    Битовая глубина : 16 бит
    Метод сжатия : С потерями
    Размер потока : 93,8 Мбайт (2%)
    Язык :German

    Скриншоты с названием фильма

    Скриншоты

    Скачать .torrent

    Скачать торрент-файл бесплатно и на максимальной скорости!

    Как скачивать? · Что такое торрент? · Рейтинг и ограничения

    !ВНИМАНИЕ!
    Сайт не распространяет и не хранит электронные версии произведений, а занимается лишь лишь предоставлением доступа к создаваемому пользователями каталогу ссылок на торрент-файлы, которые содержат только списки хеш-сумм, убедительная просьба с жалобами обращаться напрямую к пользователю. Файлы для обмена на трекере предоставлены пользователями сайта, и администрация не несёт ответственности за их содержание. Просьба не заливать файлы, защищенные авторскими правами, а также файлы нелегального содержания!


    _________________
    [Профиль] [ЛС]
    Показать сообщения:    
    Ответить на тему

    Текущее время: Сегодня, в 19:06

    Часовой пояс: GMT + 2



    Вы не можете начинать темы
    Вы не можете отвечать на сообщения
    Вы не можете редактировать свои сообщения
    Вы не можете удалять свои сообщения
    Вы не можете голосовать в опросах
    Вы не можете прикреплять файлы к сообщениям
    Вы не можете скачивать файлы