BitTorrentTracker PerecTracker.org
BitTorrentTracker PerecTracker.org
    
Регистрация  ·  Вход
 
 · 
Забыли пароль?

  • Человек-кадиллак / Cadillac Man (Роджер Дональдсон / Roger Donaldson) [1990, США, комедия, криминал, HDTV 1080i] DVO (НТВ+) + Original Eng

    Ответить на тему
     
    Автор Сообщение

    Light

    Создавать темы 31-Июл-2016 16:57

           

    [Цитировать]

    Человек-кадиллак / Cadillac Man-Страна: США
    Жанр: комедия, криминал
    Год выпуска: 1990
    Продолжительность: 01:33:25-Перевод: Профессиональный (двухголосый закадровый) НТВ+ /Елена Борзунова, Виталий Петров/
    Cубтитры: нет
    Оригинальная аудиодорожка: английский-Режиссер: Роджер Дональдсон / Roger Donaldson
    В ролях: Робин Уильямс, Тим Роббинс, Памела Рид, Фрэн Дрешер, Зак Норман, Лори Петти, Аннабелла Шиорра...- |-Описание: Главный герой занимается продажей автомобилей. Он любит свою работу, и чтобы всучить клиенту машину, не остановится ни перед чем. Его любимое изречение — «Никто не выйдет отсюда живым». Женщин он любит почти так же, как автомобили, но проблемы Джоя не ограничиваются его амурными делами. Он задолжал местному мафиози, жена требует алименты, а любовница — денег, дочь — подросток убежала из дома, а в довершение ко всему, Джой стал продавать меньше автомобилей, чем раньше, и его уволят с работы, если он не продаст двенадцать автомашин в день распродажи. Но что делать, если в магазин врывается придурок с автоматом, и угрожает всех перестрелять, если ему не укажут любовника его жены! Перед лицом смерти Джой должен заключить главную сделку в своей карьере, цена которой — жизнь.-Семпл: http://sendfile.su/1253714-Тип релиза: HDTV 1080i
    Контейнер: TS
    Видео: 1920x1080 (16:9), 25.000 fps, AVC, ~6401 Kbps, 0.123 bits/pixel
    Аудио 1: Русский, 48.0 KHz, MPEG-1 Audio layer 2, 2 ch, 192 kbps
    Аудио 2: English, 48.0 KHz, MPEG-1 Audio layer 2, 2 ch, 192 kbps

    MediaInfo

    GeneralID : 1 (0x1)Complete name : Cadillac Man 1990 MGMHD 1080i.rus.eng.tsFormat : MPEG-TSFile size : 4.66 GiBDuration : 1 h 33 minOverall bit rate mode : VariableOverall bit rate : 7 141 kb/sMaximum Overall bit rate : 35.5 Mb/s
    VideoID : 4113 (0x1011)Menu ID : 1 (0x1)Format : AVCFormat/Info : Advanced Video CodecFormat profile : High@L4Format settings, CABAC : YesFormat settings, ReFrames : 4 framesCodec ID : 27Duration : 1 h 33 minBit rate : 6 401 kb/sWidth : 1 920 pixelsHeight : 1 080 pixelsDisplay aspect ratio : 16:9Frame rate : 25.000 FPSColor space : YUVChroma subsampling : 4:2:0Bit depth : 8 bitsScan type : InterlacedScan type, store method : Separated fieldsScan order : Top Field FirstBits/(Pixel*Frame) : 0.123Stream size : 4.18 GiB (90%)Color range : LimitedColor primaries : BT.709Transfer characteristics : BT.709Matrix coefficients : BT.709
    Audio #1ID : 4352 (0x1100)Menu ID : 1 (0x1)Format : MPEG AudioFormat version : Version 1Format profile : Layer 2Codec ID : 4Duration : 1 h 33 minBit rate mode : ConstantBit rate : 192 kb/sChannel(s) : 2 channelsSampling rate : 48.0 kHzCompression mode : LossyStream size : 128 MiB (3%)Language : Russian
    Audio #2ID : 4353 (0x1101)Menu ID : 1 (0x1)Format : MPEG AudioFormat version : Version 1Format profile : Layer 2Codec ID : 4Duration : 1 h 33 minBit rate mode : ConstantBit rate : 192 kb/sChannel(s) : 2 channelsSampling rate : 48.0 kHzCompression mode : LossyStream size : 128 MiB (3%)Language : English

    Скриншоты

    Скачать .torrent

    Скачать торрент-файл бесплатно и на максимальной скорости!

    Как скачивать? · Что такое торрент? · Рейтинг и ограничения

    !ВНИМАНИЕ!
    Сайт не распространяет и не хранит электронные версии произведений, а занимается лишь лишь предоставлением доступа к создаваемому пользователями каталогу ссылок на торрент-файлы, которые содержат только списки хеш-сумм, убедительная просьба с жалобами обращаться напрямую к пользователю. Файлы для обмена на трекере предоставлены пользователями сайта, и администрация не несёт ответственности за их содержание. Просьба не заливать файлы, защищенные авторскими правами, а также файлы нелегального содержания!


    _________________
    [Профиль] [ЛС]
    Показать сообщения:    
    Ответить на тему

    Текущее время: Сегодня, в 13:51

    Часовой пояс: GMT + 2



    Вы не можете начинать темы
    Вы не можете отвечать на сообщения
    Вы не можете редактировать свои сообщения
    Вы не можете удалять свои сообщения
    Вы не можете голосовать в опросах
    Вы не можете прикреплять файлы к сообщениям
    Вы не можете скачивать файлы