BitTorrentTracker PerecTracker.org
BitTorrentTracker PerecTracker.org
    
Регистрация  ·  Вход
 
 · 
Забыли пароль?

  • Дорогая Элеонора / Dear Eleanor (Кевин Коннолли / Kevin Connolly) [2016, США, драма, комедия, приключения, семейный, история, WEB-DL 720p] MVO (iTunes) + Original (Eng) + Sub (Rus, Ukr, Eng)

    Ответить на тему
     
    Автор Сообщение

    Light

    Создавать темы 31-Июл-2016 12:53

           

    [Цитировать]

    Дорогая Элеонора / Dear Eleanor-Год выпуска: 2016
    Страна: США
    Студия: Destination Films
    Жанр: драма, комедия, приключения, семейный, история
    Продолжительность: 01:29:31
    Перевод: Профессиональный (многоголосый закадровый) iTunes Russia
    Cубтитры: русские, украинские, английские
    Оригинальная аудиодорожка: английский
    -Режиссер: Кевин Коннолли / Kevin Connolly-В ролях: Изабель Фурман, Лиана Либерато, Джона Луйан, Дэвид Адамс, Джессика Альба, Амелия Роуз Эпплгейт, Лайам Эпплгейт, Мэдлин Грэйс Эпплгейт, Айми Белл, Эрик Бьен и другие.-Описание: Две молодых девушки путешествуют по США в 1962 году, во время хаоса кубинского ракетного кризиса, в поисках Элеоноры Рузвельт.-РЕЛИЗ ОТ: V.SERIJ2013-Качество: WEB-DL 720p |HDClub|
    Формат: MKV
    Видео кодек: H.264
    Аудио кодек: AC3
    Видео: H.264, 1280x532 (2.40:1), 23.976 fps, ~3862 kbps, 0.237 bit/pixel
    Аудио:
    • русская |iTunes|: AC3, 48 kHz, 6 ch, 384 kbps
    • английская |Оригинал|: AC3, 48 kHz, 6 ch, 384 kbps
    -Сэмпл \ Кинопоиск-

    Скриншоты

    Media Info

    General
    Unique ID                      : 228578017746516144333583157861358868419 (0xABF6865FE3E80E089AEEF5D1015997C3)
    Complete name                  : E:\Video\HD\Movies (HD)\Dear Eleanor (2016) (WEB-DL 720p).mkv
    Format                         : Matroska
    Format version                 : Version 4 / Version 2
    File size                      : 2.95 GiB
    Duration                       : 1h 29mn
    Overall bit rate               : 4 724 Kbps
    Encoded date                   : UTC 2016-07-28 07:41:08
    Writing application            : mkvmerge v8.8.0 ('Wind at my back') 32bit
    Writing library                : libebml v1.3.3 + libmatroska v1.4.4
    DURATION                       : 01:24:33.323000000
    NUMBER_OF_FRAMES               : 1248
    NUMBER_OF_BYTES                : 47445
    _STATISTICS_WRITING_APP        : mkvmerge v8.8.0 ('Wind at my back') 32bit
    _STATISTICS_WRITING_DATE_UTC   : 2016-07-28 07:41:08
    _STATISTICS_TAGS               : BPS DURATION NUMBER_OF_FRAMES NUMBER_OF_BYTES
    Video
    ID                             : 1
    Format                         : AVC
    Format/Info                    : Advanced Video Codec
    Format profile                 : Main@L3.1
    Format settings, CABAC         : No
    Format settings, ReFrames      : 2 frames
    Codec ID                       : V_MPEG4/ISO/AVC
    Duration                       : 1h 29mn
    Bit rate                       : 3 862 Kbps
    Width                          : 1 280 pixels
    Height                         : 532 pixels
    Display aspect ratio           : 2.40:1
    Frame rate mode                : Constant
    Frame rate                     : 23.976 fps
    Color space                    : YUV
    Chroma subsampling             : 4:2:0
    Bit depth                      : 8 bits
    Scan type                      : Progressive
    Bits/(Pixel*Frame)             : 0.237
    Stream size                    : 2.42 GiB (82%)
    Language                       : English
    Default                        : Yes
    Forced                         : No
    Color primaries                : BT.709
    Transfer characteristics       : BT.709
    Matrix coefficients            : BT.709
    Color range                    : Limited
    Audio #1
    ID                             : 2
    Format                         : AC-3
    Format/Info                    : Audio Coding 3
    Mode extension                 : CM (complete main)
    Format settings, Endianness    : Big
    Codec ID                       : A_AC3
    Duration                       : 1h 29mn
    Bit rate mode                  : Constant
    Bit rate                       : 384 Kbps
    Channel(s)                     : 6 channels
    Channel positions              : Front: L C R, Side: L R, LFE
    Sampling rate                  : 48.0 KHz
    Bit depth                      : 16 bits
    Compression mode               : Lossy
    Stream size                    : 246 MiB (8%)
    Title                          : MVO (iTunes)
    Language                       : Russian
    Default                        : Yes
    Forced                         : No
    Audio #2
    ID                             : 3
    Format                         : AC-3
    Format/Info                    : Audio Coding 3
    Mode extension                 : CM (complete main)
    Format settings, Endianness    : Big
    Codec ID                       : A_AC3
    Duration                       : 1h 29mn
    Bit rate mode                  : Constant
    Bit rate                       : 384 Kbps
    Channel(s)                     : 6 channels
    Channel positions              : Front: L C R, Side: L R, LFE
    Sampling rate                  : 48.0 KHz
    Bit depth                      : 16 bits
    Compression mode               : Lossy
    Stream size                    : 246 MiB (8%)
    Title                          : Original
    Language                       : English
    Default                        : No
    Forced                         : No
    Text #1
    ID                             : 4
    Format                         : UTF-8
    Codec ID                       : S_TEXT/UTF8
    Codec ID/Info                  : UTF-8 Plain Text
    Title                          : Forced (iTunes)
    Language                       : Russian
    Default                        : Yes
    Forced                         : No
    Text #2
    ID                             : 5
    Format                         : UTF-8
    Codec ID                       : S_TEXT/UTF8
    Codec ID/Info                  : UTF-8 Plain Text
    Title                          : Full (iTunes)
    Language                       : Russian
    Default                        : No
    Forced                         : No
    Text #3
    ID                             : 6
    Format                         : UTF-8
    Codec ID                       : S_TEXT/UTF8
    Codec ID/Info                  : UTF-8 Plain Text
    Title                          : Full (iTunes)
    Language                       : Ukrainian
    Default                        : No
    Forced                         : No
    Text #4
    ID                             : 7
    Format                         : UTF-8
    Codec ID                       : S_TEXT/UTF8
    Codec ID/Info                  : UTF-8 Plain Text
    Title                          : Original
    Language                       : English
    Default                        : No
    Forced                         : No
    Menu
    00:00:00.000                   : en:1
    00:05:41.007                   : en:2
    00:12:06.558                   : en:3
    00:16:03.001                   : en:4
    00:19:23.992                   : en:5
    00:25:31.067                   : en:6
    00:32:05.752                   : en:7
    00:38:48.154                   : en:8
    00:45:34.226                   : en:9
    00:50:46.829                   : en:10
    00:57:15.843                   : en:11
    01:01:53.703                   : en:12
    01:06:47.288                   : en:13
    01:10:33.973                   : en:14
    01:15:55.961                   : en:15
    01:22:41.365                   : en:16
    -
    Скачать .torrent

    Скачать торрент-файл бесплатно и на максимальной скорости!

    Как скачивать? · Что такое торрент? · Рейтинг и ограничения

    !ВНИМАНИЕ!
    Сайт не распространяет и не хранит электронные версии произведений, а занимается лишь лишь предоставлением доступа к создаваемому пользователями каталогу ссылок на торрент-файлы, которые содержат только списки хеш-сумм, убедительная просьба с жалобами обращаться напрямую к пользователю. Файлы для обмена на трекере предоставлены пользователями сайта, и администрация не несёт ответственности за их содержание. Просьба не заливать файлы, защищенные авторскими правами, а также файлы нелегального содержания!


    _________________
    [Профиль] [ЛС]
    Показать сообщения:    
    Ответить на тему

    Текущее время: Сегодня, в 10:51

    Часовой пояс: GMT + 2



    Вы не можете начинать темы
    Вы не можете отвечать на сообщения
    Вы не можете редактировать свои сообщения
    Вы не можете удалять свои сообщения
    Вы не можете голосовать в опросах
    Вы не можете прикреплять файлы к сообщениям
    Вы не можете скачивать файлы