BitTorrentTracker PerecTracker.org
BitTorrentTracker PerecTracker.org
    
Регистрация  ·  Вход
 
 · 
Забыли пароль?

  • Карантин (Илья Фрэз) [1983, детский, приключения, DVDRip]

    Ответить на тему
     
    Автор Сообщение

    Flirldrerve

    Создавать темы 31-Июл-2016 00:24

           

    [Цитировать]

    Карантин
    Жанр: детский, приключения
    Год выпуска: 1983
    Продолжительность: 01:16:19

    Режиссёр: Илья Фрэз
    В ролях: Лика Кремер, Евгения Симонова, Юрий Дуванов, Светлана Немоляева, Юрий Богатырев, Татьяна Пельтцер, Павел Кадочников, Лидия Федосеева-Шукшина, Елена Соловей, Нина Архипова, Любовь Соколова, Владимир Антоник, Александр Пашутин, Иван Рыжов
    Описание: Когда в детском саду, который посещает Машенька, объявили карантин, оказалось, что девочку не у кого оставить - все заняты неотложными делами, прабабушка и прадедушка тоже работают. Поэтому Маша будет жить у родственников, друзей, коллег и случайных знакомых, а заодно, быть может, узнает много интересного и увлекательного.
    Качество видео: DVDRip
    Формат видео: AVI
    Видео: 656x496 (1.32:1), 25 fps, XviD build 73 ~2358 kbps avg, 0.29 bit/pixel
    Аудио: 48 kHz, AC3 Dolby Digital, 2/0 (L,R) ch, ~192 kbps

    MediaInfo

    Общее
    Полное имя : H:\Карантин.1983.dvdrip_[1.37]_[teko].avi
    Формат : AVI
    Формат/Информация : Audio Video Interleave
    Размер файла : 1,36 Гбайт
    Продолжительность : 1 ч. 16 м.
    Общий поток : 2560 Кбит/сек
    Программа кодирования : VirtualDubMod 1.5.10.3 | www.virtualdub-fr.org || (build 2550/release)
    Библиотека кодирования : VirtualDubMod build 2550/release
    Видео
    Идентификатор : 0
    Формат : MPEG-4 Visual
    Профиль формата : Advanced Simple@L5
    Параметр BVOP формата : 1
    Параметр QPel формата : Нет
    Параметр GMC формата : Без точки перехода
    Параметр матрицы формата : Выборочная
    Идентификатор кодека : XVID
    Идентификатор кодека/Подсказка : XviD
    Продолжительность : 1 ч. 16 м.
    Битрейт : 2359 Кбит/сек
    Ширина : 656 пикселей
    Высота : 496 пикселей
    Соотношение сторон : 4:3
    Частота кадров : 25,000 кадров/сек
    Цветовое пространство : YUV
    Субдискретизация насыщенности : 4:2:0
    Битовая глубина : 8 бит
    Тип развёртки : Прогрессивная
    Метод сжатия : С потерями
    Бит/(Пиксели*Кадры) : 0.290
    Размер потока : 1,26 Гбайт (92%)
    Библиотека кодирования : XviD 73
    Аудио
    Идентификатор : 1
    Формат : AC-3
    Формат/Информация : Audio Coding 3
    Расширение режима : CM (complete main)
    Параметр Endianness формата : Big
    Идентификатор кодека : 2000
    Продолжительность : 1 ч. 16 м.
    Вид битрейта : Постоянный
    Битрейт : 192 Кбит/сек
    Каналы : 2 канала
    Расположение каналов : Front: L R
    Частота : 48,0 КГц
    Битовая глубина : 16 бит
    Метод сжатия : С потерями
    Размер потока : 105 Мбайт (7%)
    Выравнивание : Разделение по промежуткам
    Продолжительность промежутка : 40 мс. (1,00 видеокадр)
    Время предзагрузки промежутка : 500 мс.

    Скриншоты

    --
    Скачать .torrent

    Скачать торрент-файл бесплатно и на максимальной скорости!

    Как скачивать? · Что такое торрент? · Рейтинг и ограничения

    !ВНИМАНИЕ!
    Сайт не распространяет и не хранит электронные версии произведений, а занимается лишь лишь предоставлением доступа к создаваемому пользователями каталогу ссылок на торрент-файлы, которые содержат только списки хеш-сумм, убедительная просьба с жалобами обращаться напрямую к пользователю. Файлы для обмена на трекере предоставлены пользователями сайта, и администрация не несёт ответственности за их содержание. Просьба не заливать файлы, защищенные авторскими правами, а также файлы нелегального содержания!


    _________________
    [Профиль] [ЛС]

    -746

    Создавать темы 31-Июл-2016 20:45 (спустя 20 часов)

           

    Топік був перенесений з форуму Наше кино у форум Детские отечественные фильмы

    rechyn

    _________________
    Как бы ты высоко не летал, не забывай, с кем ты ползал..
     
    Показать сообщения:    
    Ответить на тему

    Текущее время: Сегодня, в 19:57

    Часовой пояс: GMT + 2



    Вы не можете начинать темы
    Вы не можете отвечать на сообщения
    Вы не можете редактировать свои сообщения
    Вы не можете удалять свои сообщения
    Вы не можете голосовать в опросах
    Вы не можете прикреплять файлы к сообщениям
    Вы не можете скачивать файлы