BitTorrentTracker PerecTracker.org
BitTorrentTracker PerecTracker.org
    
Регистрация  ·  Вход
 
 · 
Забыли пароль?

  • Они сбежали / He ovat paenneet / They Have Escaped (Дж.-П. Валькеапяя / J.-P. Valkeapää) [2014, Финляндия, Нидерланды, драма, BDRip 720p] Sub (Rus, Eng) + Original Fin

    Ответить на тему
     
    Автор Сообщение

    Light

    Создавать темы 31-Июл-2016 00:24

           

    [Цитировать]

    Они сбежали / He ovat paenneet / They Have Escaped
    Страна: Финляндия, Нидерланды
    Студия: Helsinki-Filmi
    Жанр: драма
    Год выпуска: 2014
    Продолжительность: 01:41:33
    Перевод: Субтитры
    Cубтитры: русские (Ifirf86), английские (Aretta Vähälä).
    Оригинальная аудиодорожка: финский
    Режиссер: Дж.-П. Валькеапяя / J.-P. Valkeapää
    В ролях: Рооса Сёдерхолм, Теппо Маннер, Яри Пехконен, Сара Пааволайнен, Пелле Хейккиля
    Описание: Парень и девушка встречаются в центре для проблемной молодежи. Парень пришел отрабатывать свои обязательные общественные работы. Девушка — одна из подростков под стражей, она постоянно попадает в неприятности, внутри неё — огонь, а её жажду к жизни невозможно подавить или контролировать. Парень влюбляется в неё. Он — тихоня и заика. Однако внутри него тоже пылает огонь.
    Сэмпл: https://www.sendspace.com/file/6bdrtf
    Тип релиза: BDRip 720p (найден в сети)
    Контейнер: MKV
    Видео: AVC at 7680 Кбит/сек 1280 x 692 (1.850) at 24.000 fps
    Аудио: Finnish AC-3 at 640 Кбит/сек 6 каналов, 48,0 КГц
    Формат субтитров: softsub (SRT)

    MediaInfo

    Общее
    Уникальный идентификатор : 171334975189171537149484809194328392852 (0x80E5EA79FAE0B5F8A5C1F39CC19D8494)
    Полное имя : D:\Перевод фильмов\Они сбежали\They.Have.Escaped.2014.720p.BluRay.DD5.1.x264-HiFi (1).mkv
    Формат : Matroska
    Версия формата : Version 4 / Version 2
    Размер файла : 6,02 Гбайт
    Продолжительность : 1 ч. 41 м.
    Общий поток : 8489 Кбит/сек
    Название фильма : They.Have.Escaped.2014.720p.BluRay.DD5.1.x264-HiFi
    Дата кодирования : UTC 2016-07-18 16:29:24
    Программа кодирования : mkvmerge v9.3.1 ('Mask Machine') 64bit
    Библиотека кодирования : libebml v1.3.4 + libmatroska v1.4.5
    DURATION : 01:39:53.792000000
    NUMBER_OF_FRAMES : 318
    NUMBER_OF_BYTES : 18526
    _STATISTICS_WRITING_APP : mkvmerge v9.3.1 ('Mask Machine') 64bit
    _STATISTICS_WRITING_DATE_UTC : 2016-07-18 16:29:24
    _STATISTICS_TAGS : BPS DURATION NUMBER_OF_FRAMES NUMBER_OF_BYTES
    Видео
    Идентификатор : 1
    Формат : AVC
    Формат/Информация : Advanced Video Codec
    Профиль формата : High@L4.1
    Параметр CABAC формата : Да
    Параметр ReFrames формата : 9 кадров
    Идентификатор кодека : V_MPEG4/ISO/AVC
    Продолжительность : 1 ч. 41 м.
    Битрейт : 7680 Кбит/сек
    Ширина : 1280 пикселей
    Высота : 692 пикселя
    Соотношение сторон : 1,85:1
    Режим частоты кадров : Постоянный
    Частота кадров : 24,000 кадра/сек
    Цветовое пространство : YUV
    Субдискретизация насыщенности : 4:2:0
    Битовая глубина : 8 бит
    Тип развёртки : Прогрессивная
    Бит/(Пиксели*Кадры) : 0.361
    Размер потока : 5,45 Гбайт (90%)
    Библиотека кодирования : x264 core 142 r2431+42 c69a006 tMod [8-bit@all X86_64]
    Настройки программы : cabac=1 / ref=9 / deblock=1:-3:-3 / analyse=0x3:0x113 / me=umh / subme=10 / psy=1 / fade_compensate=0.00 / psy_rd=0.90:0.00 / mixed_ref=1 / me_range=32 / chroma_me=1 / trellis=2 / 8x8dct=1 / cqm=0 / deadzone=21,11 / fast_pskip=0 / chroma_qp_offset=-2 / threads=6 / lookahead_threads=1 / sliced_threads=0 / nr=0 / decimate=0 / interlaced=0 / bluray_compat=0 / constrained_intra=0 / fgo=0 / bframes=13 / b_pyramid=2 / b_adapt=2 / b_bias=0 / direct=3 / weightb=1 / open_gop=0 / weightp=2 / keyint=250 / keyint_min=23 / scenecut=40 / intra_refresh=0 / rc_lookahead=60 / rc=crf / mbtree=0 / crf=18.2000 / qcomp=0.65 / qpmin=0:0:0 / qpmax=69:69:69 / qpstep=4 / vbv_maxrate=38000 / vbv_bufsize=32000 / crf_max=0.0 / nal_hrd=none / filler=0 / ip_ratio=1.30 / pb_ratio=1.10 / aq=4:0.85 / aq-sensitivity=10.00 / aq-factor=1.00:1.00:1.00 / aq2=0 / aq3=0 / zones=817,954,crf=15/1740,1836,crf=15/24056,24650,crf=14/28785,29153,crf=15/35780,36525,crf=16/39284,40417,crf=14/50848,51104,crf=15/66068,66309,crf=16/67576,67671,crf=15/67875,67998,crf=14/83344,83445,crf=16/88964,89276,crf=14/101237,101875,crf=14/102426,102496,crf=14/104030,104890,crf=15/124406,125451,crf=15/127037,127725,crf=15/130868,131353,crf=15/135392,135467,crf=15
    Default : Да
    Forced : Нет
    DURATION : 01:41:33.167000000
    NUMBER_OF_FRAMES : 146236
    NUMBER_OF_BYTES : 5976865488
    _STATISTICS_WRITING_APP : mkvmerge v9.3.1 ('Mask Machine') 64bit
    _STATISTICS_WRITING_DATE_UTC : 2016-07-18 16:29:24
    _STATISTICS_TAGS : BPS DURATION NUMBER_OF_FRAMES NUMBER_OF_BYTES
    Аудио
    Идентификатор : 2
    Формат : AC-3
    Формат/Информация : Audio Coding 3
    Расширение режима : CM (complete main)
    Параметр Endianness формата : Big
    Идентификатор кодека : A_AC3
    Продолжительность : 1 ч. 41 м.
    Вид битрейта : Постоянный
    Битрейт : 640 Кбит/сек
    Каналы : 6 каналов
    Расположение каналов : Front: L C R, Side: L R, LFE
    Частота : 48,0 КГц
    Битовая глубина : 16 бит
    Метод сжатия : С потерями
    Размер потока : 465 Мбайт (8%)
    Язык : Finnish
    Default : Да
    Forced : Нет
    Текст #1
    Идентификатор : 3
    Формат : UTF-8
    Идентификатор кодека : S_TEXT/UTF8
    Идентификатор кодека/Информация : UTF-8 Plain Text
    Язык : English
    Default : Да
    Forced : Нет
    Текст #2
    Идентификатор : 4
    Формат : UTF-8
    Идентификатор кодека : S_TEXT/UTF8
    Идентификатор кодека/Информация : UTF-8 Plain Text
    Язык : Russian
    Default : Нет
    Forced : Нет
    Меню
    00:00:00.000 : en:Chapter 1
    00:05:34.208 : en:Chapter 2
    00:10:41.667 : en:Chapter 3
    00:15:35.500 : en:Chapter 4
    00:21:00.500 : en:Chapter 5
    00:25:30.833 : en:Chapter 6
    00:29:29.875 : en:Chapter 7
    00:35:36.958 : en:Chapter 8
    00:42:34.500 : en:Chapter 9
    00:47:26.333 : en:Chapter 10
    00:51:57.333 : en:Chapter 11
    00:57:57.458 : en:Chapter 12
    01:01:34.375 : en:Chapter 13
    01:07:31.917 : en:Chapter 14
    01:11:32.958 : en:Chapter 15
    01:16:25.500 : en:Chapter 16
    01:23:12.417 : en:Chapter 17
    01:31:14.292 : en:Chapter 18
    01:37:17.125 : en:Chapter 19

    Скриншоты

    Пример субтитров

    1
    00:01:34,959 --> 00:01:38,584
    Меня зовут Ярко Войкаала,
    я директор детского дома.
    2
    00:01:39,292 --> 00:01:40,917
    Дж... Дж... Дж...
    3
    00:01:41,167 --> 00:01:46,167
    Ничего страшного, если у тебя эта проблема...
    Хорошо, Джонни, добро пожаловать.
    4
    00:01:47,126 --> 00:01:51,792
    Исполнение твоей альтернативной военной службы
    здесь включает в себя -
    5
    00:01:52,042 --> 00:01:54,084
    ряд обязанностей.
    6
    00:01:54,417 --> 00:01:57,959
    Я объясню их тебе подробнее,
    когда мы осмотримся здесь.
    7
    00:01:58,417 --> 00:02:03,376
    Ты должен будешь заполнить
    кучу документов:
    8
    00:02:03,626 --> 00:02:05,917
    соглашение о конфиденциальности
    и тому подобное.
    9
    00:02:08,959 --> 00:02:13,417
    Здесь у нас животные.
    Дети могут ухаживать за ними.
    10
    00:02:17,542 --> 00:02:23,001
    Крыло для девочек. Крыло для мальчиков.
    Зайдём в крыло для девочек.
    11
    00:02:32,167 --> 00:02:33,917
    Сегодня день уборки.
    12
    00:02:34,167 --> 00:02:38,834
    Мы присматриваем за тем, что происходит в жизни
    наших подопечных.
    13
    00:02:41,376 --> 00:02:45,667
    Мы перебираем их вещи,
    но оставляем их там, где они лежат.
    14
    00:02:48,417 --> 00:02:52,417
    Не суй свою руку в ящик,
    сначала его не проверив.
    15
    00:02:52,667 --> 00:02:54,792
    Можно обнаружить неприятный сюрприз.
    16
    00:02:56,626 --> 00:02:58,251
    Чёрт побери.
    17
    00:03:03,001 --> 00:03:05,751
    Мы конфискуем спички, зажигалки
    18
    00:03:06,001 --> 00:03:09,209
    и всё, что может быть использовано
    в качестве оружия.
    19
    00:03:09,459 --> 00:03:15,834
    У нас нулевая терпимость к алкоголю,
    сигаретам и табачным изделиям.
    Скачать .torrent

    Скачать торрент-файл бесплатно и на максимальной скорости!

    Как скачивать? · Что такое торрент? · Рейтинг и ограничения

    !ВНИМАНИЕ!
    Сайт не распространяет и не хранит электронные версии произведений, а занимается лишь лишь предоставлением доступа к создаваемому пользователями каталогу ссылок на торрент-файлы, которые содержат только списки хеш-сумм, убедительная просьба с жалобами обращаться напрямую к пользователю. Файлы для обмена на трекере предоставлены пользователями сайта, и администрация не несёт ответственности за их содержание. Просьба не заливать файлы, защищенные авторскими правами, а также файлы нелегального содержания!


    _________________
    [Профиль] [ЛС]
    Показать сообщения:    
    Ответить на тему

    Текущее время: Сегодня, в 01:49

    Часовой пояс: GMT + 2



    Вы не можете начинать темы
    Вы не можете отвечать на сообщения
    Вы не можете редактировать свои сообщения
    Вы не можете удалять свои сообщения
    Вы не можете голосовать в опросах
    Вы не можете прикреплять файлы к сообщениям
    Вы не можете скачивать файлы