BitTorrentTracker PerecTracker.org
BitTorrentTracker PerecTracker.org
    
Регистрация  ·  Вход
 
 · 
Забыли пароль?

  • Братья ветра / Brothers of the Wind / Wie Brüder im Wind (Херардо Оливарес / Gerardo Olivares, Отмар Пенкер / Otmar Penker) [2015, Австрия, драма, приключения, семейный, BDRip 1080p] MVO + Sub Rus, Eng + Original Eng

    Ответить на тему
     
    Автор Сообщение

    Light

    Создавать темы 31-Июл-2016 00:24

           

    [Цитировать]

    Братья ветра / Brothers of the Wind / Wie Brüder im Wind
    Страна: Австрия
    Студия: Terra Mater Factual Studios
    Жанр: драма, приключения, семейный
    Год выпуска: 2015
    Продолжительность: 01:37:56
    Перевод: Любительский (многоголосый закадровый) GreenРай Studio
    Cубтитры: русские, английские
    Оригинальная аудиодорожка: английский
    Режиссер: Херардо Оливарес / Gerardo Olivares, Отмар Пенкер / Otmar Penker
    В ролях: Мануэль Камачо, Жан Рено, Тобиас Моретти, Эва Куэн
    Описание: Альпы, 60 годы прошлого столетия. Двенадцатилетний Лукас проживает со своим отцом на небольшом хуторе. Однажды мальчик находит птенца орла, выпавшего из гнезда, и тайно приносит его домой.
    Доп. информация: Очень красивый, в визуальном плане, приключенческий фильм о дружбе мальчика и орла, закадровым голосом историю рассказывает сам Жан Рено. Диалогов в фильме не много(примерно в три раза меньше, чем в обычном фильме) поэтому можно смотреть и с субтитрами. Добавлена озвучка от GreenРай Studio. Роли озвучивали - Антон Агапов, Алексей Соловьев, Антон Эмельянов. Существует ещё одна любительская озвучка, эта та, которая с рекламой вездесущего убогого казино - она не добавлена в раздачу в ввиду своего отвратительного качества(посторонние шумы, фоновые звуки отсутствующие в оригинальной дороге и прочие косяки), которое портит всю атмосферу фильма, да и по правилам раздела это не обязательно.
    Кинопоиск
    Sample
    Тип релиза: BDRip 1080p - VietHD
    Контейнер: MKV
    Видео: MPEG4 AVC Video, H264, 1920x1042, 23.976 fps, 12723 Kbps
    Аудио: Russian (AC3, 6 ch, 448 kbps, 16 bits, 48.0 KHz) - MVO
    Аудио 2: English (DTS, 6 ch, 1509 kbps, 24 bits, 48.0 KHz) - оригинал
    Формат субтитров: softsub (SRT)

    MediaInfo

    x264

    x264 [info]: frame I:1109 Avg QP:16.70 size:299025
    x264 [info]: frame P:27988 Avg QP:18.09 size:125194
    x264 [info]: frame B:111807 Avg QP:19.17 size: 49289
    x264 [info]: consecutive B-frames: 2.1% 2.6% 5.4% 13.4% 13.0% 31.5% 15.2% 13.3% 2.3% 1.1%
    General
    Unique ID : 181082216200127917255776188752166755980 (0x883B2A8FDB619A2094923CEB12499E8C)
    Complete name : D:\Brothers of the Wind 2015 BDRip 1080p-VietHD.mkv
    Format : Matroska
    Format version : Version 4 / Version 2
    File size : 10.0 GiB
    Duration : 1h 37mn
    Overall bit rate : 14.7 Mbps
    Encoded date : UTC 2016-07-26 21:09:08
    Writing application : mkvmerge v6.1.0 ('Old Devil') built on Mar 2 2013 14:32:37
    Writing library : libebml v1.3.0 + libmatroska v1.4.0
    Video
    ID : 1
    Format : AVC
    Format/Info : Advanced Video Codec
    Format profile : High@L4.1
    Format settings, CABAC : Yes
    Format settings, ReFrames : 4 frames
    Codec ID : V_MPEG4/ISO/AVC
    Duration : 1h 37mn
    Bit rate : 12.4 Mbps
    Width : 1 920 pixels
    Height : 1 042 pixels
    Display aspect ratio : 1.85:1
    Frame rate mode : Constant
    Frame rate : 23.976 fps
    Color space : YUV
    Chroma subsampling : 4:2:0
    Bit depth : 8 bits
    Scan type : Progressive
    Bits/(Pixel*Frame) : 0.259
    Stream size : 8.51 GiB (85%)
    Writing library : x264 core 148 r2705.16 d50a22e VietHD_Custom_64
    Encoding settings : cabac=1 / ref=4 / deblock=1:-3:-3 / analyse=0x3:0x133 / me=umh / subme=10 / psy=1 / fade_compensate=0.00 / psy_rd=1.07:0.00 / mixed_ref=1 / me_range=24 / chroma_me=1 / trellis=2 / 8x8dct=1 / cqm=0 / deadzone=21,11 / fast_pskip=0 / chroma_qp_offset=-2 / threads=12 / lookahead_threads=2 / sliced_threads=0 / nr=0 / decimate=0 / interlaced=0 / bluray_compat=0 / constrained_intra=0 / fgo=0 / bframes=9 / b_pyramid=2 / b_adapt=2 / b_bias=0 / direct=3 / weightb=1 / open_gop=0 / weightp=2 / keyint=250 / keyint_min=23 / scenecut=40 / intra_refresh=0 / rc_lookahead=60 / rc=crf / mbtree=0 / crf=18.5000 / qcomp=0.65 / qpmin=0:0:0 / qpmax=69:69:69 / qpstep=4 / vbv_maxrate=62500 / vbv_bufsize=78125 / crf_max=0.0 / nal_hrd=none / filler=0 / ip_ratio=1.30 / pb_ratio=1.20 / aq=3:0.79 / aq-sensitivity=10.00 / aq-factor=1.00:1.00:1.00 / aq2=0 / aq3=0
    Language : English
    Default : Yes
    Forced : No
    Matrix coefficients : BT.709
    Audio #1
    ID : 2
    Format : AC-3
    Format/Info : Audio Coding 3
    Mode extension : CM (complete main)
    Format settings, Endianness : Big
    Codec ID : A_AC3
    Duration : 1h 37mn
    Bit rate mode : Constant
    Bit rate : 448 Kbps
    Channel count : 6 channels
    Channel positions : Front: L C R, Side: L R, LFE
    Sampling rate : 48.0 KHz
    Bit depth : 16 bits
    Compression mode : Lossy
    Stream size : 314 MiB (3%)
    Language : Russian
    Default : Yes
    Forced : No
    Audio #2
    ID : 3
    Format : DTS
    Format/Info : Digital Theater Systems
    Mode : 16
    Format settings, Endianness : Big
    Codec ID : A_DTS
    Duration : 1h 37mn
    Bit rate mode : Constant
    Bit rate : 1 509 Kbps
    Channel count : 6 channels
    Channel positions : Front: L C R, Side: L R, LFE
    Sampling rate : 48.0 KHz
    Bit depth : 24 bits
    Compression mode : Lossy
    Stream size : 1.03 GiB (10%)
    Language : English
    Default : No
    Forced : No
    Text #1
    ID : 4
    Format : UTF-8
    Codec ID : S_TEXT/UTF8
    Codec ID/Info : UTF-8 Plain Text
    Language : Russian
    Default : No
    Forced : No
    Text #2
    ID : 5
    Format : UTF-8
    Codec ID : S_TEXT/UTF8
    Codec ID/Info : UTF-8 Plain Text
    Language : English
    Default : No
    Forced : No
    Menu
    00:00:00.000 : en:00:00:00.000
    00:09:42.540 : en:00:09:42.540
    00:18:34.780 : en:00:18:34.780
    00:28:05.350 : en:00:28:05.350
    00:37:14.524 : en:00:37:14.524
    00:47:48.532 : en:00:47:48.532
    00:56:46.903 : en:00:56:46.903
    01:06:20.018 : en:01:06:20.018
    01:15:06.210 : en:01:15:06.210
    01:22:52.634 : en:01:22:52.634
    01:28:54.287 : en:01:28:54.287
    01:33:38.238 : en:01:33:38.238

    Скриншоты


    Торрент-файл перезалит 27.07.2016 !!!
    Добавлена голосовая озвучка.
    Скачать .torrent

    Скачать торрент-файл бесплатно и на максимальной скорости!

    Как скачивать? · Что такое торрент? · Рейтинг и ограничения

    !ВНИМАНИЕ!
    Сайт не распространяет и не хранит электронные версии произведений, а занимается лишь лишь предоставлением доступа к создаваемому пользователями каталогу ссылок на торрент-файлы, которые содержат только списки хеш-сумм, убедительная просьба с жалобами обращаться напрямую к пользователю. Файлы для обмена на трекере предоставлены пользователями сайта, и администрация не несёт ответственности за их содержание. Просьба не заливать файлы, защищенные авторскими правами, а также файлы нелегального содержания!


    _________________
    [Профиль] [ЛС]
    Показать сообщения:    
    Ответить на тему

    Текущее время: Сегодня, в 05:56

    Часовой пояс: GMT + 2



    Вы не можете начинать темы
    Вы не можете отвечать на сообщения
    Вы не можете редактировать свои сообщения
    Вы не можете удалять свои сообщения
    Вы не можете голосовать в опросах
    Вы не можете прикреплять файлы к сообщениям
    Вы не можете скачивать файлы