BitTorrentTracker PerecTracker.org
BitTorrentTracker PerecTracker.org
    
Регистрация  ·  Вход
 
 · 
Забыли пароль?

  • [ATV3] Большой Босс / The Boss (Бен Фэлкоун / Ben Falcone ) [2016, США, Комедия, BDRip, HD (1080p)] DUB [Theatrical Cut] + Original + sub (rus, ukr, eng)

    Ответить на тему
     
    Автор Сообщение

    rechyn

    Создавать темы 30-Июл-2016 16:07

           

    [Цитировать]

    Большой Босс / The Boss
    (Theatrical Cut)

    «Watch your assets»
    5.479 / 10 5.30 / 10
    -Год выпуска: 2016
    Страна: США
    Жанр: Комедия
    Продолжительность: 01:38:48
    Перевод: Дублированный (iTunes)
    Оригинальная аудиодорожка: Есть
    Cубтитры: Русские форсированные, Русские, Украинские, Английские
    Режиссёр: Бен Фэлкоун
    Сценарий: Бен Фэлкоун, Стив Мэллори, Мелисса МакКарти
    Продюсер: Уилл Феррелл, Адам МакКей, Элизабет Коэн
    Оператор: Хулио Макат
    Композитор: Кристофер Леннерц
    Художник: Расти Смит, Дэниэл Б. Клэнси, Хезер Р. Дюма
    Монтаж: Крэйг Элперт
    В ролях: Мелисса МакКарти, Кристен Белл, Питер Динклэйдж, Элла Андерсон, Тайлер Лабин, Кэти Бейтс, Сесили Стронг, Мэри Сон, Кристен Шаал, Эва Питерсон
    Бюджет: $29 000 000
    Сборы в США: $63 077 560
    Сборы в мире: + $15 558 697 = $78 636 257
    Мировая премьера: 21 марта 2016
    Описание: В центре сюжета бизнес-леди, промышленный магнат, очутившаяся в тюрьме, погорев на теневых сделках. Отсидев положенное, женщина мечтает искупить вину и сменить статус мошенницы на всеобщую любимицу, только не все жертвы ее махинаций готовы пересмотреть свое отношение к ней.-Качество исходника: BDRemux (HDClub)
    Качество: BDRip
    Тип: HD (1080p)
    Контейнер: M4V
    Видео: H.264, 1920x1040, 1.85:1, 8 000 Kbps, 23.976 fps
    Аудио 1: Русский/Дублированный (iTunes), AAC / 2.0 / 156 Kbps / 48.0 KHz
    Аудио 2: Английский/Оригинальная дорожка , AAC / 2.0 / 156 Kbps / 48.0 KHz
    Аудио 3: Английский/Оригинальная дорожка , AC-3 / 5.1 / 640 Kbps / 48.0 KHz
    Субтитры 1: Русские форсированные
    Субтитры 2: Русские полные
    Субтитры 3: Украинские полные
    Субтитры 4: Английские полные
    -

    iTunes Meta Tags

    Sort Name: Boss
    XID: Apple:vendor_id:2016-737862
    contentID: 1097165674
    Copyright: © 2016 Universal Studios. All Rights Reserved.
    Screenwriters: Бен Фэлкоун, Стив Мэллори, Мелисса МакКарти
    Producers: Уилл Феррелл, Адам МакКей, Элизабет Коэн
    Director: Бен Фэлкоун
    Cast: Мелисса МакКарти, Кристен Белл, Питер Динклэйдж, Элла Андерсон, Тайлер Лабин, Кэти Бейтс, Сесили Стронг, Мэри Сон, Кристен Шаал, Эва Питерсон, Анастасия Лапина, Вероника Саркисова, Сергей Чихачев, Василиса Эльдарова, Даниил Эльдаров
    Studio: Universal Pictures
    Rating: 125
    Long Description: В центре сюжета бизнес-леди, промышленный магнат, очутившаяся в тюрьме, погорев на теневых сделках. Отсидев положенное, женщина мечтает искупить вину и сменить статус мошенницы на всеобщую любимицу, только не все жертвы ее махинаций готовы пересмотреть свое отношение к ней.
    Description: В центре сюжета бизнес-леди, промышленный магнат, очутившаяся в тюрьме, погорев на теневых сделках. Отсидев положенное, женщина мечтает искупить вину и сменить статус мошенницы на всеобщую любимицу, только не все жертвы ее махинаций готовы пересмотреть свое отношение к ней.
    Release Date: 2016-03-21T08:00:00Z
    Genre: Comedy
    Artist: Ben Falcone
    Name: The Boss

    MediaInfo

    General
    Complete name : /Users/imac/HandBrake/The Boss (1080p HD).m4v
    Format : MPEG-4
    Codec ID : M4V
    File size : 6.18 GiB
    Duration : 1h 38mn
    Overall bit rate mode : Variable
    Overall bit rate : 8 954 Kbps
    Movie name : The Boss
    Performer : Ben Falcone
    Director : Бен Фэлкоун
    Actor : Мелисса МакКарти / Кристен Белл / Питер Динклэйдж / Элла Андерсон / Тайлер Лабин / Кэти Бейтс / Сесили Стронг / Мэри Сон / Кристен Шаал / Эва Питерсон / Анастасия Лапина / Вероника Саркисова / Сергей Чихачев / Василиса Эльдарова / Даниил Эльдаров
    Screenplay by : Бен Фэлкоун / Стив Мэллори / Мелисса МакКарти
    Producer : Уилл Феррелл / Адам МакКей / Элизабет Коэн
    Production studio : Universal Pictures
    Genre : Comedy
    ContentType : Short Film
    Description : В центре сюжета бизнес-леди, промышленный магнат, очутившаяся в тюрьме, погорев на теневых сделках. Отсидев положенное, женщина мечтает искупить вину и сменить статус мошенницы на всеобщую любимицу, только не все жертвы ее махинаций готовы пересмотреть свое отношение к ней.
    Recorded date : UTC 2016-03-21 08:00:00
    Encoded date : UTC 2016-07-30 09:05:00
    Tagged date : UTC 2016-07-30 09:26:23
    Copyright : © 2016 Universal Studios. All Rights Reserved.
    Cover : Yes
    Rating : None
    Title/Sort : Boss
    LongDescription : В центре сюжета бизнес-леди, промышленный магнат, очутившаяся в тюрьме, погорев на теневых сделках. Отсидев положенное, женщина мечтает искупить вину и сменить статус мошенницы на всеобщую любимицу, только не все жертвы ее махинаций готовы пересмотреть свое отношение к ней.
    AppleStoreCatalogID : 1097165674
    Vendor : Apple:vendor_id:2016-737862
    ContentRating : uk-movie|15|350|
    Video #1
    ID : 1
    Format : AVC
    Format/Info : Advanced Video Codec
    Format profile : High@L4
    Format settings, CABAC : Yes
    Format settings, ReFrames : 4 frames
    Codec ID : avc1
    Codec ID/Info : Advanced Video Coding
    Duration : 1h 38mn
    Source duration : 1h 38mn
    Bit rate : 8 000 Kbps
    Width : 1 920 pixels
    Height : 1 040 pixels
    Display aspect ratio : 1.85:1
    Frame rate mode : Variable
    Frame rate : 23.976 fps
    Minimum frame rate : 23.974 fps
    Maximum frame rate : 23.981 fps
    Color space : YUV
    Chroma subsampling : 4:2:0
    Bit depth : 8 bits
    Scan type : Progressive
    Bits/(Pixel*Frame) : 0.167
    Stream size : 5.52 GiB (89%)
    Source stream size : 5.52 GiB (89%)
    Title : Main Program
    Writing library : x264 core 142 r2479 dd79a61
    Encoding settings : cabac=1 / ref=4 / deblock=1:-2:-2 / analyse=0x3:0x133 / me=umh / subme=10 / psy=1 / psy_rd=1.00:0.15 / mixed_ref=1 / me_range=32 / chroma_me=1 / trellis=2 / 8x8dct=1 / cqm=0 / deadzone=21,11 / fast_pskip=0 / chroma_qp_offset=-3 / threads=36 / lookahead_threads=8 / sliced_threads=0 / nr=0 / decimate=0 / interlaced=0 / bluray_compat=0 / constrained_intra=0 / bframes=16 / b_pyramid=2 / b_adapt=2 / b_bias=0 / direct=3 / weightb=1 / open_gop=0 / weightp=2 / keyint=240 / keyint_min=24 / scenecut=40 / intra_refresh=0 / rc_lookahead=60 / rc=2pass / mbtree=1 / bitrate=8000 / ratetol=1.0 / qcomp=0.70 / qpmin=0 / qpmax=69 / qpstep=4 / cplxblur=20.0 / qblur=0.5 / vbv_maxrate=25000 / vbv_bufsize=25000 / nal_hrd=none / filler=0 / ip_ratio=1.40 / aq=1:1.00
    Language : English
    Encoded date : UTC 2016-07-30 09:05:00
    Tagged date : UTC 2016-07-30 09:05:12
    Color range : Limited
    Color primaries : BT.709
    Transfer characteristics : BT.709
    Matrix coefficients : BT.709
    Video #2
    ID : 10
    Format : JPEG
    Codec ID : jpeg
    Duration : 1h 38mn
    Bit rate mode : Variable
    Bit rate : 1 520 bps
    Width : 640 pixels
    Height : 346 pixels
    Display aspect ratio : 1.85:1
    Frame rate mode : Variable
    Frame rate : 0.003 fps
    Minimum frame rate : 0.002 fps
    Maximum frame rate : 0.012 fps
    Color space : YUV
    Chroma subsampling : 4:2:0
    Bit depth : 8 bits
    Compression mode : Lossy
    Bits/(Pixel*Frame) : 2.288
    Stream size : 1.21 MiB (0%)
    Title : Chapter Images
    Language : English
    Encoded date : UTC 2016-07-30 09:05:23
    Tagged date : UTC 2016-07-30 09:05:24
    Audio #1
    ID : 2
    Format : AAC
    Format/Info : Advanced Audio Codec
    Format profile : LC
    Codec ID : 40
    Duration : 1h 38mn
    Bit rate mode : Variable
    Bit rate : 156 Kbps
    Maximum bit rate : 250 Kbps
    Channel(s) : 2 channels
    Channel positions : Front: L R
    Sampling rate : 48.0 KHz
    Compression mode : Lossy
    Stream size : 110 MiB (2%)
    Title : Russian Stereo
    Language : Russian
    Encoded date : UTC 2016-07-30 09:05:00
    Tagged date : UTC 2016-07-30 09:05:09
    Audio #2
    ID : 3
    Format : AAC
    Format/Info : Advanced Audio Codec
    Format profile : LC
    Codec ID : 40
    Duration : 1h 38mn
    Bit rate mode : Variable
    Bit rate : 156 Kbps
    Maximum bit rate : 274 Kbps
    Channel(s) : 2 channels
    Channel positions : Front: L R
    Sampling rate : 48.0 KHz
    Compression mode : Lossy
    Stream size : 110 MiB (2%)
    Title : English Stereo
    Language : English
    Encoded date : UTC 2016-07-30 09:05:00
    Tagged date : UTC 2016-07-30 09:05:12
    Audio #3
    ID : 4
    Format : AC-3
    Format/Info : Audio Coding 3
    Mode extension : CM (complete main)
    Format settings, Endianness : Big
    Codec ID : ac-3
    Duration : 1h 38mn
    Bit rate mode : Constant
    Bit rate : 640 Kbps
    Channel(s) : 6 channels
    Channel positions : Front: L C R, Side: L R, LFE
    Sampling rate : 48.0 KHz
    Bit depth : 16 bits
    Compression mode : Lossy
    Stream size : 452 MiB (7%)
    Title : English DD 5.1
    Language : English
    Encoded date : UTC 2016-07-30 09:05:00
    Tagged date : UTC 2016-07-30 09:05:12
    Text #1
    ID : 5
    Format : Timed Text
    Muxing mode : sbtl
    Codec ID : tx3g
    Duration : 1h 21mn
    Bit rate mode : Variable
    Bit rate : 1 bps
    Stream size : 800 Bytes (0%)
    Title : Russian forced
    Language : Russian
    Encoded date : UTC 2016-07-30 09:05:00
    Tagged date : UTC 2016-07-30 09:05:08
    Text #2
    ID : 6
    Format : Timed Text
    Muxing mode : sbtl
    Codec ID : tx3g
    Duration : 1h 37mn
    Bit rate mode : Variable
    Bit rate : 151 bps
    Stream size : 108 KiB (0%)
    Title : Russian full
    Language : Russian
    Encoded date : UTC 2016-07-30 09:05:00
    Tagged date : UTC 2016-07-30 09:05:12
    Text #3
    ID : 7
    Format : Timed Text
    Muxing mode : sbtl
    Codec ID : tx3g
    Duration : 1h 37mn
    Bit rate mode : Variable
    Bit rate : 146 bps
    Stream size : 104 KiB (0%)
    Title : Ukrainian full
    Language : Ukrainian
    Encoded date : UTC 2016-07-30 09:05:00
    Tagged date : UTC 2016-07-30 09:05:12
    Text #4
    ID : 8
    Format : Timed Text
    Muxing mode : sbtl
    Codec ID : tx3g
    Duration : 1h 37mn
    Bit rate mode : Variable
    Bit rate : 112 bps
    Stream size : 80.0 KiB (0%)
    Title : English SDH
    Language : English
    Encoded date : UTC 2016-07-30 09:05:00
    Tagged date : UTC 2016-07-30 09:05:12
    Menu #1
    00:00:00.000 : Chapter 1
    00:06:00.068 : Chapter 2
    00:09:40.622 : Chapter 3
    00:14:48.429 : Chapter 4
    00:20:44.243 : Chapter 5
    00:24:03.901 : Chapter 6
    00:29:59.339 : Chapter 7
    00:35:27.625 : Chapter 8
    00:39:59.188 : Chapter 9
    00:44:55.568 : Chapter 10
    00:50:30.110 : Chapter 11
    00:53:31.667 : Chapter 12
    00:59:51.379 : Chapter 13
    01:05:55.160 : Chapter 14
    01:10:32.145 : Chapter 15
    01:13:54.764 : Chapter 16
    01:19:30.307 : Chapter 17
    01:25:07.436 : Chapter 18
    01:32:06.312 : Chapter 19
    01:33:26.518 : Chapter 20
    Menu #2
    ID : 9
    Codec ID : text
    Duration : 1h 38mn
    Language : English
    Encoded date : UTC 2016-07-30 09:05:12
    Tagged date : UTC 2016-07-30 09:05:12
    00:00:00.000 : Chapter 1
    00:06:00.068 : Chapter 2
    00:09:40.622 : Chapter 3
    00:14:48.429 : Chapter 4
    00:20:44.243 : Chapter 5
    00:24:03.901 : Chapter 6
    00:29:59.339 : Chapter 7
    00:35:27.625 : Chapter 8
    00:39:59.188 : Chapter 9
    00:44:55.568 : Chapter 10
    00:50:30.110 : Chapter 11
    00:53:31.667 : Chapter 12
    00:59:51.379 : Chapter 13
    01:05:55.160 : Chapter 14
    01:10:32.145 : Chapter 15
    01:13:54.764 : Chapter 16
    01:19:30.307 : Chapter 17
    01:25:07.436 : Chapter 18
    01:32:06.312 : Chapter 19
    01:33:26.518 : Chapter 20
    Bit rate mode : VBR

    x264 лог

    x264 [info]: frame I:1083  Avg QP:15.74  size:248585
    x264 [info]: frame P:32281 Avg QP:18.23  size: 77176
    x264 [info]: frame B:108788 Avg QP:19.28  size: 29059
    x264 [info]: consecutive B-frames:  2.3%  4.4% 11.5% 13.1% 15.3% 49.6%  3.1%  0.2%  0.1%  0.1%  0.1%  0.0%  0.0%  0.0%  0.0%  0.0%  0.1%
    x264 [info]: mb I  I16..4:  7.2% 83.1%  9.7%
    x264 [info]: mb P  I16..4:  1.8% 11.9%  1.0%  P16..4: 47.7% 17.6% 13.2%  0.3%  0.1%    skip: 6.3%
    x264 [info]: mb B  I16..4:  0.1%  1.0%  0.1%  B16..8: 42.3%  8.4%  1.9%  direct: 7.1%  skip:39.1%  L0:43.7% L1:45.5% BI:10.8%
    x264 [info]: 8x8 transform intra:82.2% inter:60.6%
    x264 [info]: direct mvs  spatial:98.2% temporal:1.8%
    x264 [info]: coded y,uvDC,uvAC intra: 85.5% 90.0% 73.3% inter: 25.1% 34.9% 17.6%
    x264 [info]: i16 v,h,dc,p: 32% 12% 10% 45%
    x264 [info]: i8 v,h,dc,ddl,ddr,vr,hd,vl,hu: 12%  8%  9%  9% 12% 13% 11% 13% 12%
    x264 [info]: i4 v,h,dc,ddl,ddr,vr,hd,vl,hu: 12%  8%  4%  9% 15% 16% 13% 12% 11%
    x264 [info]: i8c dc,h,v,p: 49% 16% 18% 16%
    x264 [info]: Weighted P-Frames: Y:0.9% UV:0.6%
    x264 [info]: ref P L0: 52.0%  8.7% 28.2%  9.6%  1.4%  0.0%
    x264 [info]: ref B L0: 82.8% 14.1%  3.1%
    x264 [info]: ref B L1: 91.6%  8.4%
    x264 [info]: kb/s:7990.45

    Скриншоты

    -

    Релиз подготовлен для просмотра на Apple TV, iPad, iPhone, iPod Touch.
    Для просмотра данного релиза на компьютере с ОС Windows рекомендуется использовать VLC media player
    Скачать .torrent

    Скачать торрент-файл бесплатно и на максимальной скорости!

    Как скачивать? · Что такое торрент? · Рейтинг и ограничения

    !ВНИМАНИЕ!
    Сайт не распространяет и не хранит электронные версии произведений, а занимается лишь лишь предоставлением доступа к создаваемому пользователями каталогу ссылок на торрент-файлы, которые содержат только списки хеш-сумм, убедительная просьба с жалобами обращаться напрямую к пользователю. Файлы для обмена на трекере предоставлены пользователями сайта, и администрация не несёт ответственности за их содержание. Просьба не заливать файлы, защищенные авторскими правами, а также файлы нелегального содержания!


    _________________
    [Профиль] [ЛС]
    Показать сообщения:    
    Ответить на тему

    Текущее время: Сегодня, в 10:31

    Часовой пояс: GMT + 2



    Вы не можете начинать темы
    Вы не можете отвечать на сообщения
    Вы не можете редактировать свои сообщения
    Вы не можете удалять свои сообщения
    Вы не можете голосовать в опросах
    Вы не можете прикреплять файлы к сообщениям
    Вы не можете скачивать файлы