BitTorrentTracker PerecTracker.org
BitTorrentTracker PerecTracker.org
    
Регистрация  ·  Вход
 
 · 
Забыли пароль?

  • Почти герои / Almost Heroes (Кристофер Гест / Christopher Guest) [1998, США, комедия, приключения, вестерн, WEB-DL 720p] Dub (Варус Видео) + MVO (НТВ+) + VO (Николай Антонов) + AVO (Александр Кашкин) + Sub Eng + Original Eng

    Ответить на тему
     
    Автор Сообщение

    Light

    Создавать темы 30-Июл-2016 11:55

           

    [Цитировать]

    30.07.16 торрент перезалит. Переводы: Варус Видео и НТВ+ синхронизированны заново.-Почти герои / Almost Heroes
    Страна: США
    Жанр: комедия, приключения, вестерн
    Год выпуска: 1998
    Продолжительность: 01:30:19
    Перевод 1: Профессиональный (дублированный) Варус Видео
    Перевод 2: Профессиональный (многоголосый закадровый) НТВ+
    Перевод 3: Одноголосый закадровый Николай Антонов
    Перевод 4: Авторский (одноголосый закадровый) Александр Кашкин
    Cубтитры: английские
    Оригинальная аудиодорожка: английский
    Режиссер: Кристофер Гест / Christopher Guest
    В ролях: Крис Фарли, Мэттью Перри, Букем Вудбайн, Бэрри Дель Шерман, Роберт Титтор, Франклин Ковер, Дэвид Пэкер, Юджин Леви, Лиза Барбуша, Кристиан Клименсон...
    Описание: В 1794 году по поручению президента США состоялась экспедиция на Дикий Запад, в последствии названная экспедицией Льюиса и Кларка. Однако мало кто знает, что немногим ранее состоялась другая экспедиция по тому же маршруту.
    Группа веселых дебоширов и бедолаг, невзирая на невероятные препятствия и козни врагов, достигла американских берегов Тихого океана и даже пошла немного далее.
    Сэмпл: http://sendfile.su/1253986
    Тип релиза: WEB-DL 720p
    Контейнер: MKV
    Видео: 1278x720 (16:9), 23.976 fps, AVC, ~4162 Kbps, 0.189 bits/pixel
    Аудио 1: Russian, 48.0 KHz, AC3, 2 ch, 224 Kbps - Варус Видео
    Аудио 2: Russian, 48.0 KHz, AC3, 2 ch, 192 Kbps - НТВ+
    Аудио 3: Russian, 48.0 KHz, AC3, 1 ch, 192 Kbps - Николай Антонов
    Аудио 4: Russian, 48.0 KHz, AC3, 2 ch, 192 Kbps - Александр Кашкин
    Аудио 5: English, 48.0 KHz, AC3, 6 ch, 448 Kbps

    Доп. информация

    Оцифровка перевода Варус Видео – Fikaloid.
    Оцифровка перевода Антонова - 21Sepsis.
    Перевод НТВ+ с раздачи Vikachka.
    Перевод Кашкина с раздачи White Owl.
    Синхронизация звука – Dreven.

    MediaInfo

    General
    Unique ID : 222451327721364573830871303831978172403 (0xA75A913C0FF0A7798AE992B41AD6DFF3)
    Complete name : D:\Almost Heroes. WEB-DL 720p.mkv
    Format : Matroska
    Format version : Version 4 / Version 2
    File size : 3.48 GiB
    Duration : 1h 30mn
    Overall bit rate : 5 518 Kbps
    Encoded date : UTC 2016-07-30 04:47:26
    Writing application : mkvmerge v9.3.1 ('Mask Machine') 64bit
    Writing library : libebml v1.3.4 + libmatroska v1.4.5
    Video
    ID : 1
    Format : AVC
    Format/Info : Advanced Video Codec
    Format profile : High@L3.1
    Format settings, CABAC : No
    Format settings, ReFrames : 2 frames
    Format settings, GOP : N=1
    Codec ID : V_MPEG4/ISO/AVC
    Duration : 1h 30mn
    Bit rate : 4 269 Kbps
    Width : 1 278 pixels
    Height : 720 pixels
    Display aspect ratio : 16:9
    Frame rate mode : Constant
    Frame rate : 23.976 (23976/1000) fps
    Color space : YUV
    Chroma subsampling : 4:2:0
    Bit depth : 8 bits
    Scan type : Progressive
    Bits/(Pixel*Frame) : 0.193
    Stream size : 2.69 GiB (77%)
    Language : English
    Default : Yes
    Forced : No
    Color range : Limited
    Color primaries : BT.709
    Transfer characteristics : BT.709
    Matrix coefficients : BT.709
    Audio #1
    ID : 2
    Format : AC-3
    Format/Info : Audio Coding 3
    Mode extension : CM (complete main)
    Format settings, Endianness : Big
    Codec ID : A_AC3
    Duration : 1h 30mn
    Bit rate mode : Constant
    Bit rate : 224 Kbps
    Channel(s) : 2 channels
    Channel positions : Front: L R
    Sampling rate : 48.0 KHz
    Frame rate : 31.250 fps (1536 spf)
    Compression mode : Lossy
    Stream size : 145 MiB (4%)
    Title : Варус Видео
    Language : Russian
    Default : Yes
    Forced : No
    Audio #2
    ID : 3
    Format : AC-3
    Format/Info : Audio Coding 3
    Mode extension : CM (complete main)
    Format settings, Endianness : Big
    Codec ID : A_AC3
    Duration : 1h 30mn
    Bit rate mode : Constant
    Bit rate : 192 Kbps
    Channel(s) : 2 channels
    Channel positions : Front: L R
    Sampling rate : 48.0 KHz
    Frame rate : 31.250 fps (1536 spf)
    Compression mode : Lossy
    Stream size : 124 MiB (3%)
    Title : НТВ+
    Language : Russian
    Default : No
    Forced : No
    Audio #3
    ID : 4
    Format : AC-3
    Format/Info : Audio Coding 3
    Mode extension : CM (complete main)
    Format settings, Endianness : Big
    Codec ID : A_AC3
    Duration : 1h 30mn
    Bit rate mode : Constant
    Bit rate : 192 Kbps
    Channel(s) : 1 channel
    Channel positions : Front: C
    Sampling rate : 48.0 KHz
    Frame rate : 31.250 fps (1536 spf)
    Compression mode : Lossy
    Stream size : 124 MiB (3%)
    Title : Николай Антонов
    Language : Russian
    Default : No
    Forced : No
    Audio #4
    ID : 5
    Format : AC-3
    Format/Info : Audio Coding 3
    Mode extension : CM (complete main)
    Format settings, Endianness : Big
    Codec ID : A_AC3
    Duration : 1h 30mn
    Bit rate mode : Constant
    Bit rate : 192 Kbps
    Channel(s) : 2 channels
    Channel positions : Front: L R
    Sampling rate : 48.0 KHz
    Frame rate : 31.250 fps (1536 spf)
    Compression mode : Lossy
    Stream size : 124 MiB (3%)
    Title : Александр Кашкин
    Language : Russian
    Default : No
    Forced : No
    Audio #5
    ID : 6
    Format : AC-3
    Format/Info : Audio Coding 3
    Mode extension : CM (complete main)
    Format settings, Endianness : Big
    Codec ID : A_AC3
    Duration : 1h 30mn
    Bit rate mode : Constant
    Bit rate : 448 Kbps
    Channel(s) : 6 channels
    Channel positions : Front: L C R, Side: L R, LFE
    Sampling rate : 48.0 KHz
    Frame rate : 31.250 fps (1536 spf)
    Compression mode : Lossy
    Stream size : 289 MiB (8%)
    Language : English
    Default : No
    Forced : No
    Text
    ID : 7
    Format : UTF-8
    Codec ID : S_TEXT/UTF8
    Codec ID/Info : UTF-8 Plain Text
    Duration : 1h 23mn
    Bit rate : 55 bps
    Count of elements : 942
    Stream size : 33.8 KiB (0%)
    Language : English
    Default : No
    Forced : No
    Menu
    00:00:00.000 : en:Chapter 1
    00:02:29.000 : en:Chapter 2
    00:05:39.000 : en:Chapter 3
    00:10:20.000 : en:Chapter 4
    00:15:03.000 : en:Chapter 5
    00:21:53.000 : en:Chapter 6
    00:26:03.000 : en:Chapter 7
    00:33:25.000 : en:Chapter 8
    00:37:04.000 : en:Chapter 9
    00:41:29.000 : en:Chapter 10
    00:49:48.000 : en:Chapter 11
    00:52:18.000 : en:Chapter 12
    01:01:20.000 : en:Chapter 13
    01:03:57.000 : en:Chapter 14
    01:06:31.000 : en:Chapter 15
    01:11:16.000 : en:Chapter 16
    01:17:03.000 : en:Chapter 17
    01:19:44.000 : en:Chapter 18
    01:23:58.000 : en:Chapter 19
    01:26:21.000 : en:Chapter 20

    Скриншоты

    Скачать .torrent

    Скачать торрент-файл бесплатно и на максимальной скорости!

    Как скачивать? · Что такое торрент? · Рейтинг и ограничения

    !ВНИМАНИЕ!
    Сайт не распространяет и не хранит электронные версии произведений, а занимается лишь лишь предоставлением доступа к создаваемому пользователями каталогу ссылок на торрент-файлы, которые содержат только списки хеш-сумм, убедительная просьба с жалобами обращаться напрямую к пользователю. Файлы для обмена на трекере предоставлены пользователями сайта, и администрация не несёт ответственности за их содержание. Просьба не заливать файлы, защищенные авторскими правами, а также файлы нелегального содержания!


    _________________
    [Профиль] [ЛС]
    Показать сообщения:    
    Ответить на тему

    Текущее время: Сегодня, в 16:11

    Часовой пояс: GMT + 2



    Вы не можете начинать темы
    Вы не можете отвечать на сообщения
    Вы не можете редактировать свои сообщения
    Вы не можете удалять свои сообщения
    Вы не можете голосовать в опросах
    Вы не можете прикреплять файлы к сообщениям
    Вы не можете скачивать файлы