BitTorrentTracker PerecTracker.org
BitTorrentTracker PerecTracker.org
    
Регистрация  ·  Вход
 
 · 
Забыли пароль?

  • Холодное сердце / Frozen (Крис Бак / Chris Buck, Дженнифер Ли / Jennifer Lee) [2013, США, мультфильм, мюзикл, фэнтези, комедия, мелодрама, HDRip] [Локализованный видеоряд] Dub

    Ответить на тему
     
    Автор Сообщение

    Flirldrerve

    Создавать темы 30-Июл-2016 11:55

           

    [Цитировать]

    Холодное сердце / Frozen
    Страна: США
    Жанр: мультфильм, мюзикл, фэнтези, комедия, мелодрама
    Продолжительность: 01:42:13
    Год выпуска: 2013
    Перевод: Профессиональный (дублированный)
    Субтитры: отсутствуют
    Режиссёр: Крис Бак / Chris Buck, Дженнифер Ли / Jennifer Lee
    Роли озвучивали: Кристен Белл (Anna (Наталия Быстрова), Идина Мензел (Elsa (Анна Бутурлина), Джонатан Грофф (Kristoff (Андрей Бирин), Джош Гад (Olaf (Сергей Пенкин), Сантино Фонтана (Hans (Дима Билан), Алан Тьюдик (Duke (Василий Бочкарев), Киран Хайндс (Pabbie / Grandpa (Владимир Рыбальченко), Крис Уильямс (Oaken), Стивен Дж. Андерсон (Kai (Сергей Чихачев), Майа Уилсон (Bulda (Анастасия Лапина)
    Описание: Когда древнее предсказание сбывается и королевство погружается в объятия вечной зимы, трое бесстрашных героев — принцесса Анна, отважный Кристофф и его верный олень Свен — отправляются в горы, чтобы найти сестру Анны, Эльзу, которая может снять со страны леденящее заклятие. По пути их ждет множество увлекательных сюрпризов и захватывающих приключений: встреча с мистическими троллями, знакомство с очаровательным снеговиком по имени Олаф, горные вершины покруче Эвереста и магия в каждой снежинке. Анне и Кристоффу предстоит сплотиться и противостоять могучей стихии, чтобы спасти королевство и тех, кто им дорог…
    Сэмпл: http://multi-up.com/1112003
    Релиз -
    Качество: HDRip (Исх. Frozen.2013.BDRip.1080p.Rus.Eng)
    Формат: AVI
    Видео: 656x288 (2.28:1), 23.976 fps, XviD build 73 ~889 kbps avg, 0.20 bit/pixel
    Аудио: 48 kHz, MPEG Layer 3, 2 ch, ~128.00 kbps avg - BD

    Подробные технические данные

    ОбщееПолное имя : D:\загрузки\Frozen.2013.HDRip.Dub.745MB.MegaPeer.aviФормат : AVIФормат/Информация : Audio Video InterleaveРазмер файла : 748 МбайтПродолжительность : 1 ч. 42 м.Общий поток : 1023 Кбит/сек
    ВидеоИдентификатор : 0Формат : MPEG-4 VisualПрофиль формата : Advanced Simple@L5Параметр BVOP формата : 1Параметр QPel формата : НетПараметр GMC формата : Без точки переходаПараметр матрицы формата : ВыборочнаяИдентификатор кодека : XVIDИдентификатор кодека/Подсказка : XviDПродолжительность : 1 ч. 42 м.Битрейт : 889 Кбит/секШирина : 656 пикселейВысота : 288 пикселейСоотношение сторон : 2,25:1Частота кадров : 23,976 (24000/1001) кадра/секЦветовое пространство : YUVСубдискретизация насыщенности : 4:2:0Битовая глубина : 8 битТип развёртки : ПрогрессивнаяМетод сжатия : С потерямиБит/(Пиксели*Кадры) : 0.196Размер потока : 650 Мбайт (87%)Библиотека кодирования : XviD 73
    АудиоИдентификатор : 1Формат : MPEG AudioВерсия формата : Version 1Профиль формата : Layer 3Режим : Joint stereoРасширение режима : MS StereoИдентификатор кодека : 55Идентификатор кодека/Подсказка : MP3Продолжительность : 1 ч. 42 м.Вид битрейта : ПостоянныйБитрейт : 128 Кбит/секКаналы : 2 каналаЧастота : 48,0 КГцМетод сжатия : С потерямиРазмер потока : 93,6 Мбайт (13%)Выравнивание : Соединение по промежуткамПродолжительность промежутка : 167 мс. (4,00 видеокадра)Время предзагрузки промежутка : 216 мс.Заголовок : BDБиблиотека кодирования : LAME3.99rНастройки программы : -m j -V 4 -q 2 -lowpass 17 -b 128

    Скриншоты

    Скачать .torrent

    Скачать торрент-файл бесплатно и на максимальной скорости!

    Как скачивать? · Что такое торрент? · Рейтинг и ограничения

    !ВНИМАНИЕ!
    Сайт не распространяет и не хранит электронные версии произведений, а занимается лишь лишь предоставлением доступа к создаваемому пользователями каталогу ссылок на торрент-файлы, которые содержат только списки хеш-сумм, убедительная просьба с жалобами обращаться напрямую к пользователю. Файлы для обмена на трекере предоставлены пользователями сайта, и администрация не несёт ответственности за их содержание. Просьба не заливать файлы, защищенные авторскими правами, а также файлы нелегального содержания!


    _________________
    [Профиль] [ЛС]
    Показать сообщения:    
    Ответить на тему

    Текущее время: Сегодня, в 12:34

    Часовой пояс: GMT + 2



    Вы не можете начинать темы
    Вы не можете отвечать на сообщения
    Вы не можете редактировать свои сообщения
    Вы не можете удалять свои сообщения
    Вы не можете голосовать в опросах
    Вы не можете прикреплять файлы к сообщениям
    Вы не можете скачивать файлы