BitTorrentTracker PerecTracker.org
BitTorrentTracker PerecTracker.org
    
Регистрация  ·  Вход
 
 · 
Забыли пароль?

  • Механик / Le Garagiste / Adrien (Рене Било / Renée Beaulieu / Renee Beaulieu) [2015, Канада, драма, DVDRip] Sub Rus + Original Fre

    Ответить на тему
     
    Автор Сообщение

    Light

    Создавать темы 30-Июл-2016 11:55

           

    [Цитировать]

    Механик / Le Garagiste-
    -
    -Страна: Канада (Квебек)
    Жанр: драма
    Год выпуска: 2015
    Продолжительность: 01:27:22-Перевод: Субтитры (by sonnyb)
    Cубтитры: русские
    Оригинальная аудиодорожка: французский-Режиссер: Рене Больё / Renée Beaulieu
    В ролях: Норман Дамур, Пьер-Ив Кардинал, Луиза Порталь, Натали Кавеццали, Мишель Дюмон-Описание: 50-летний Адриен, владелец автомастерской, страдает почечной недостаточностью. Ожидая трансплантации почки, он еженедельно по 12 часов проводит на гемодиализе. Вместе с тем он изо всех сил пытается удержать свою жизнь, работу и брак на плаву. Но все переворачивается вверх дном, когда Адриен нанимает молодого механика Рафаэля и возобновляет отношения с некогда любимой женщиной Мари, мамой Рафаэля. Мужчина понимает, что ни время, ни болезнь не повлияли на его чувства. Однажды вечером Адриену по телефону сообщают, что ему наконец нашли почку. Операция проходит хорошо, но восстановиться ему крайне тяжело и за несколько недель тело мужчины отказывается от пересаженного органа. Он должен посмотреть смерти в глаза и решить, возвращаться ли к гемодиализу. Выбор между жизнью и смертью, который станет судьбоносным не только для него, но и для всех, кто его любит.-Качество видео: DVDRip
    Формат видео: AVI
    Видео: XviD, 720х304, 1 785 Kbps, 23.976 fps
    Аудио: AC-3, 448 Kbps, 6 channels, 48.0 KHz[

    Пример субтитров

    119
    00:14:59,982 --> 00:15:05,045
    В своём завещании твой отец
    сказал - 25 лет.
    120
    00:15:05,154 --> 00:15:07,884
    Уже совсем недолго осталось.
    121
    00:15:09,558 --> 00:15:12,527
    Возможно, я смогу тебе помочь.
    122
    00:15:12,861 --> 00:15:17,958
    Три месяца.
    Это твоя жизнь, Рафаэль.
    123
    00:15:18,100 --> 00:15:19,863
    Где это?
    124
    00:15:19,935 --> 00:15:21,800
    Труа-Пистоль!
    125
    00:15:21,904 --> 00:15:23,303
    Гараж "Дюбэ и сыновья".
    126
    00:15:26,442 --> 00:15:29,468
    Как раз достаточно далеко,
    чтобы не учуять запах овец.
    127
    00:15:29,578 --> 00:15:31,409
    Давай я помогу тебе.
    128
    00:16:52,928 --> 00:16:54,520
    Эй.
    129
    00:16:54,596 --> 00:16:57,997
    Я проверил,
    у этого парнишки нет рекомендаций.
    130
    00:16:58,100 --> 00:17:00,000
    Он никогда не работал в
    Ривьер-дю-Луп.
    131
    00:17:00,135 --> 00:17:02,899
    И, полагаю, ты проверил все
    гаражи в Ривьер-дю-Луп.
    132
    00:17:03,005 --> 00:17:04,472
    Я говорил с Лионелем,
    а он всех знает.
    133
    00:17:04,573 --> 00:17:06,564
    И говорит обо всех.
    Это не одно и то же.
    134
    00:17:06,675 --> 00:17:08,540
    Он понятия не имеет,
    что делает.
    135
    00:17:13,415 --> 00:17:15,007
    Что не работает?
    136
    00:17:15,117 --> 00:17:16,379
    Именно это я и ищу.
    137
    00:17:16,452 --> 00:17:17,476
    Что ты уже проверил?
    138
    00:17:17,586 --> 00:17:18,917
    Я всё проверил.
    139
    00:17:22,391 --> 00:17:25,451
    О, да?
    А вот это что?
    140
    00:17:25,594 --> 00:17:30,361
    А. Да.
    Точно.
    141
    00:17:30,466 --> 00:17:33,435
    С остальным всё хорошо.
    Я проверил.

    MediaInfo

    Format : AVI
    Format/Info : Audio Video Interleave
    File size : 1.37 GiB
    Duration : 1h 27mn
    Overall bit rate : 2 243 Kbps
    Writing application : VirtualDubMod 1.5.10.3 | www.virtualdub-fr.org || (build 2550/release)
    Writing library : VirtualDubMod build 2550/release
    Video
    ID : 0
    Format : MPEG-4 Visual
    Format profile : Advanced Simple@L5
    Format settings, BVOP : 1
    Format settings, QPel : No
    Format settings, GMC : No warppoints
    Format settings, Matrix : Default (MPEG)
    Codec ID : XVID
    Codec ID/Hint : XviD
    Duration : 1h 27mn
    Bit rate : 1 785 Kbps
    Width : 720 pixels
    Height : 304 pixels
    Display aspect ratio : 2.35:1
    Frame rate : 23.976 fps
    Color space : YUV
    Chroma subsampling : 4:2:0
    Bit depth : 8 bits
    Scan type : Progressive
    Compression mode : Lossy
    Bits/(Pixel*Frame) : 0.340
    Stream size : 1.09 GiB (80%)
    Writing library : XviD 1.2.1 (UTC 2008-12-04)
    Audio
    ID : 1
    Format : AC-3
    Format/Info : Audio Coding 3
    Mode extension : CM (complete main)
    Format settings, Endianness : Big
    Codec ID : 2000
    Duration : 1h 27mn
    Bit rate mode : Constant
    Bit rate : 448 Kbps
    Channel(s) : 6 channels
    Channel positions : Front: L C R, Side: L R, LFE
    Sampling rate : 48.0 KHz
    Compression mode : Lossy
    Stream size : 280 MiB (20%)
    Alignment : Split accross interleaves
    Interleave, duration : 42 ms (1.00 video frame)
    Interleave, preload duratio : 500 ms

    Скриншоты

    Скачать .torrent

    Скачать торрент-файл бесплатно и на максимальной скорости!

    Как скачивать? · Что такое торрент? · Рейтинг и ограничения

    !ВНИМАНИЕ!
    Сайт не распространяет и не хранит электронные версии произведений, а занимается лишь лишь предоставлением доступа к создаваемому пользователями каталогу ссылок на торрент-файлы, которые содержат только списки хеш-сумм, убедительная просьба с жалобами обращаться напрямую к пользователю. Файлы для обмена на трекере предоставлены пользователями сайта, и администрация не несёт ответственности за их содержание. Просьба не заливать файлы, защищенные авторскими правами, а также файлы нелегального содержания!


    _________________
    [Профиль] [ЛС]
    Показать сообщения:    
    Ответить на тему

    Текущее время: Сегодня, в 18:58

    Часовой пояс: GMT + 2



    Вы не можете начинать темы
    Вы не можете отвечать на сообщения
    Вы не можете редактировать свои сообщения
    Вы не можете удалять свои сообщения
    Вы не можете голосовать в опросах
    Вы не можете прикреплять файлы к сообщениям
    Вы не можете скачивать файлы