BitTorrentTracker PerecTracker.org
BitTorrentTracker PerecTracker.org
    
Регистрация  ·  Вход
 
 · 
Забыли пароль?

  • Завтрак у папы (Мария Кравченко) [2015, Россия, комедия, WEB-DLRip] |iTunes Russia|

    Ответить на тему
     
    Автор Сообщение

    Flirldrerve

    Создавать темы 29-Июл-2016 23:27

           

    [Цитировать]

    Завтрак у папы-Страна: Россия
    Жанр: комедия
    Год выпуска: 2015
    Продолжительность: 01:31:52
    Перевод: Не требуется |iTunes Russia|-Режиссер: Мария Кравченко-В ролях: Юрий Колокольников, Катерина Шпица, Луиза-Габриэла Бровина, Полина Максимова, Валентин Пелка, Кристина Шаповалова, Никита Тарасов, Михаил Полицеймако-Описание: У молодого, привлекательного и самовлюбленного Саши Титова в жизни, на первый взгляд, все сложилось как нельзя лучше: он успешный креативный директор рекламного агентства и полностью удовлетворен ни к чему не обязывающими отношениями с коллегой Оксаной Тарелкиной. Но однажды утром на пороге своего пентхауса Саша встречает милую десятилетнюю девчушку Алю, которая представляется его дочкой. Ворвавшись в жизнь Саши, смышленая и любознательная Аля серьезно намерена надолго в ней обосноваться. Но готов ли Саша принять все сюрпризы, приготовленные судьбой, и в корне изменить привычную холостяцкую жизнь?--Релиз от: -Автор рипа: Yarmak23-Качество видео: WEB-DLRip |исх. / WEB-DL 1080p |
    Формат видео: AVI
    Видео: 720x304 (2.35:1), 24.000 fps, XviD 65 ~994 kbps avg, 0.189 bit/pixel
    Аудио: 48 kHz, MPEG Layer 3, 2/0 (L,R) ch, 128.00 kbps Constant |Оригинал|
    Скачать: Сэмпл-

    MI

    General
    Complete name : Zavtrak.u.papi.2015.O.WEB-DLRip.745MB.by.Yarmak23.avi
    Format : AVI
    Format/Info : Audio Video Interleave
    File size : 743 MiB
    Duration : 1h 31mn
    Overall bit rate : 1 131 Kbps
    Writing application : VirtualDubMod 1.5.10.3 | www.virtualdub-fr.org || (build 2550/release)
    Writing library : VirtualDubMod build 2550/release
    Video
    ID : 0
    Format : MPEG-4 Visual
    Format profile : Advanced Simple@L5
    Format settings, BVOP : 1
    Format settings, QPel : No
    Format settings, GMC : No warppoints
    Format settings, Matrix : Custom
    Codec ID : XVID
    Codec ID/Hint : XviD
    Duration : 1h 31mn
    Bit rate : 994 Kbps
    Width : 720 pixels
    Height : 304 pixels
    Display aspect ratio : 2.35:1
    Frame rate : 24.000 fps
    Color space : YUV
    Chroma subsampling : 4:2:0
    Bit depth : 8 bits
    Scan type : Progressive
    Compression mode : Lossy
    Bits/(Pixel*Frame) : 0.189
    Stream size : 653 MiB (88%)
    Writing library : XviD 65
    Audio
    ID : 1
    Format : MPEG Audio
    Format version : Version 1
    Format profile : Layer 3
    Codec ID : 55
    Codec ID/Hint : MP3
    Duration : 1h 31mn
    Bit rate mode : Constant
    Bit rate : 128 Kbps
    Channel(s) : 2 channels
    Sampling rate : 48.0 KHz
    Compression mode : Lossy
    Stream size : 84.1 MiB (11%)
    Alignment : Aligned on interleaves
    Interleave, duration : 42 ms (1.00 video frame)
    Interleave, preload duration : 504 ms
    Writing library : LAME3.99r
    Encoding settings : -m s -V 4 -q 2 -lowpass 17 -b 128

    Скриншот c названием фильма

    Скриншоты


    Скачать .torrent

    Скачать торрент-файл бесплатно и на максимальной скорости!

    Как скачивать? · Что такое торрент? · Рейтинг и ограничения

    !ВНИМАНИЕ!
    Сайт не распространяет и не хранит электронные версии произведений, а занимается лишь лишь предоставлением доступа к создаваемому пользователями каталогу ссылок на торрент-файлы, которые содержат только списки хеш-сумм, убедительная просьба с жалобами обращаться напрямую к пользователю. Файлы для обмена на трекере предоставлены пользователями сайта, и администрация не несёт ответственности за их содержание. Просьба не заливать файлы, защищенные авторскими правами, а также файлы нелегального содержания!


    _________________
    [Профиль] [ЛС]
    Показать сообщения:    
    Ответить на тему

    Текущее время: Сегодня, в 11:45

    Часовой пояс: GMT + 2



    Вы не можете начинать темы
    Вы не можете отвечать на сообщения
    Вы не можете редактировать свои сообщения
    Вы не можете удалять свои сообщения
    Вы не можете голосовать в опросах
    Вы не можете прикреплять файлы к сообщениям
    Вы не можете скачивать файлы