BitTorrentTracker PerecTracker.org
BitTorrentTracker PerecTracker.org
    
Регистрация  ·  Вход
 
 · 
Забыли пароль?

  • Первый мститель: Другая война / Captain America: The Winter Soldier (Энтони Руссо / Anthony Russo, Джо Руссо / Joe Russo) [2014, США, фантастика, боевик, приключения, BDRip 720p] Dub + AVO (Живов) + Original Eng + Subs (Rus, Eng)

    Ответить на тему
     
    Автор Сообщение

    Light

    Создавать темы 29-Июл-2016 23:27

           

    [Цитировать]

    Первый мститель: Другая война / Captain America: The Winter Soldier
    Страна: США
    Жанр: фантастика, боевик, приключения
    Год выпуска: 2014
    Продолжительность: 02:15:54
    Перевод: Профессиональный (дублированный)
    Перевод: Авторский (одноголосый закадровый) | Живов
    Cубтитры: русские (полные, форсированные), английские (полные SDH)
    Навигация по главам: есть
    Оригинальная аудиодорожка: английский
    Режиссер: Энтони Руссо / Anthony Russo, Джо Руссо / Joe Russo
    В ролях: Крис Эванс, Скарлетт Йоханссон, Энтони Маки, Себастьян Стэн, Сэмюэл Л. Джексон, Роберт Редфорд, Фрэнк Грилло, Коби Смолдерс, Эмили ВанКэмп, Максимилиано Эрнандес
    Описание: После беспрецедентных событий, впервые собравших вместе команду Мстителей, Стив Роджерс, известный также как Капитан Америка, оседает в Вашингтоне и пытается приспособиться к жизни в современном мире. Но покой этому герою только снится — пытаясь помочь коллеге из агентства Щ. И. Т, Стив оказывается в центре событий, грозящих катастрофой мирового масштаба. Для того, чтобы разоблачить злодейский заговор, Капитан Америка объединяется с Черной вдовой. К ним также присоединяется новый соратник, известный как Сокол, однако никто из них даже не подозревает, на что способен новый враг.
    Сэмпл: https://yadi.sk/i/WaVcM1VNtWfUY
    Автор: Elheym
    Тип релиза: BDRip 720p (источник: / Blu-ray Disc EUR / 1080p)
    Контейнер: MKV
    Видео: 1280x534 (2.40:1), 23.976 fps, MPEG-4 AVC, ~4950 kbps avg, 0.302 bit/pixel
    Аудио 1: 48 kHz, AC3 Dolby Digital, 3/2 (L,C,R,l,r) + LFE ch, ~640 kbps (DUB)
    Аудио 2: 48 kHz, DTS Dolby Digital, 3/2 (L,C,R,l,r) + LFE ch, ~1509 kbps (AVO) Живов
    Аудио 3: 48 kHz, DTS Dolby Digital, 3/2 (L,C,R,l,r) + LFE ch, ~1509 kbps (ENG)
    Формат субтитров: softsub (SRT)

    MediaInfo

    General
    Unique ID : 220866948109386725414235297093150091056 (0xA6296D49E7504A0BBE7FD2A25EBCA730)
    Format : Matroska
    Format version : Version 4 / Version 2
    File size : 8.17 GiB
    Duration : 2h 15mn
    Overall bit rate : 8 612 Kbps
    Encoded date : UTC 2016-07-21 18:35:42
    Writing application : mkvmerge v9.3.1 ('Mask Machine') 64bit
    Writing library : libebml v1.3.4 + libmatroska v1.4.5
    Attachements : Cover.jpg
    Video
    ID : 1
    Format : AVC
    Format/Info : Advanced Video Codec
    Format profile : High@L4.1
    Format settings, CABAC : Yes
    Format settings, ReFrames : 9 frames
    Codec ID : V_MPEG4/ISO/AVC
    Duration : 2h 15mn
    Bit rate : 4 950 Kbps
    Width : 1 280 pixels
    Height : 534 pixels
    Display aspect ratio : 2.40:1
    Frame rate mode : Constant
    Frame rate : 23.976 fps
    Color space : YUV
    Chroma subsampling : 4:2:0
    Bit depth : 8 bits
    Scan type : Progressive
    Bits/(Pixel*Frame) : 0.302
    Stream size : 4.54 GiB (56%)
    Title : Первый мститель: Другая война / Captain America: The Winter Soldier (2014) BDRip 720p by HQCLUB [Elheym]
    Writing library : x264 core 142 r2431 ac76440
    Encoding settings : cabac=1 / ref=10 / deblock=1:-3:-2 / analyse=0x3:0x113 / me=umh / subme=11 / psy=1 / psy_rd=1.00:0.03 / mixed_ref=1 / me_range=32 / chroma_me=1 / trellis=2 / 8x8dct=1 / cqm=0 / deadzone=21,11 / fast_pskip=1 / chroma_qp_offset=-5 / threads=6 / lookahead_threads=1 / sliced_threads=0 / nr=0 / decimate=1 / interlaced=0 / bluray_compat=0 / constrained_intra=0 / bframes=13 / b_pyramid=1 / b_adapt=2 / b_bias=0 / direct=3 / weightb=1 / open_gop=0 / weightp=2 / keyint=240 / keyint_min=23 / scenecut=40 / intra_refresh=0 / rc_lookahead=40 / rc=2pass / mbtree=0 / bitrate=4950 / ratetol=1.0 / qcomp=0.60 / qpmin=10 / qpmax=69 / qpstep=4 / cplxblur=20.0 / qblur=0.5 / vbv_maxrate=50000 / vbv_bufsize=62500 / nal_hrd=none / filler=0 / ip_ratio=1.40 / pb_ratio=1.30 / aq=1:0.80
    Language : English
    Default : Yes
    Forced : No
    Audio #1
    ID : 2
    Format : AC-3
    Format/Info : Audio Coding 3
    Mode extension : CM (complete main)
    Format settings, Endianness : Big
    Codec ID : A_AC3
    Duration : 2h 15mn
    Bit rate mode : Constant
    Bit rate : 640 Kbps
    Channel(s) : 6 channels
    Channel positions : Front: L C R, Side: L R, LFE
    Sampling rate : 48.0 KHz
    Compression mode : Lossy
    Stream size : 622 MiB (7%)
    Title : АС3 5.1 @ 640 kbps - Dub, EUR
    Language : Russian
    Default : Yes
    Forced : No
    Audio #2
    ID : 3
    Format : DTS
    Format/Info : Digital Theater Systems
    Mode : 16
    Format settings, Endianness : Big
    Codec ID : A_DTS
    Duration : 2h 15mn
    Bit rate mode : Constant
    Bit rate : 1 509 Kbps
    Channel(s) : 6 channels
    Channel positions : Front: L C R, Side: L R, LFE
    Sampling rate : 48.0 KHz
    Bit depth : 24 bits
    Compression mode : Lossy
    Stream size : 1.43 GiB (18%)
    Title : DTS 5.1 @ 1509 kbps - AVO Живов
    Language : Russian
    Default : No
    Forced : No
    Audio #3
    ID : 4
    Format : DTS
    Format/Info : Digital Theater Systems
    Mode : 16
    Format settings, Endianness : Big
    Codec ID : A_DTS
    Duration : 2h 15mn
    Bit rate mode : Constant
    Bit rate : 1 509 Kbps
    Channel(s) : 6 channels
    Channel positions : Front: L C R, Side: L R, LFE
    Sampling rate : 48.0 KHz
    Bit depth : 24 bits
    Compression mode : Lossy
    Stream size : 1.43 GiB (18%)
    Title : DTS 5.1 @ 1509 kbps - Original
    Language : English
    Default : No
    Forced : No
    Text #1
    ID : 5
    Format : UTF-8
    Codec ID : S_TEXT/UTF8
    Codec ID/Info : UTF-8 Plain Text
    Title : Full
    Language : Russian
    Default : No
    Forced : No
    Text #2
    ID : 6
    Format : UTF-8
    Codec ID : S_TEXT/UTF8
    Codec ID/Info : UTF-8 Plain Text
    Title : Forced
    Language : Russian
    Default : Yes
    Forced : No
    Text #3
    ID : 7
    Format : UTF-8
    Codec ID : S_TEXT/UTF8
    Codec ID/Info : UTF-8 Plain Text
    Title : Full SDH
    Language : English
    Default : No
    Forced : No
    Menu
    00:00:00.000 : en:Prologue
    00:03:28.667 : en:Hostages on the Lemurian Star
    00:13:31.728 : en:Don't Hold Your Breath
    00:17:57.868 : en:Steve Visits the Smithsonian
    00:22:25.302 : en:Project Insight
    00:33:20.415 : en:In Pursuit
    00:41:27.276 : en:Steve Meets Alexander Pierce
    00:51:37.303 : en:Fugitives from S.H.I.E.L.D.
    00:58:23.959 : en:Uncovering the Past
    01:07:40.348 : en:Call It a Resume
    01:16:22.203 : en:Facing Off with the Winter Soldier
    01:24:43.078 : en:Captain's Orders
    01:32:17.699 : en:Paying a Price
    01:37:06.612 : en:Engaging
    01:49:13.088 : en:The End of the Line
    01:55:03.730 : en:Battle over the Potomac
    02:01:11.055 : en:Life after S.H.I.E.L.D.
    02:06:22.241 : en:End Credits

    264 log

    x264 [info]: frame I:1593 Avg QP:14.28 size: 98793
    x264 [info]: frame P:54849 Avg QP:15.82 size: 44795
    x264 [info]: frame B:139064 Avg QP:17.46 size: 17479
    x264 [info]: consecutive B-frames: 7.3% 8.9% 11.6% 16.6% 14.7% 29.0% 4.5% 1.0% 1.5% 1.0% 0.9% 0.5% 1.0% 1.4%
    x264 [info]: ref P L0: 59.4% 9.9% 14.0% 5.8% 3.8% 2.6% 2.0% 1.2% 1.1% 0.3% 0.0%
    x264 [info]: ref B L0: 77.8% 10.9% 5.0% 2.4% 1.6% 1.1% 0.9% 0.4%
    x264 [info]: ref B L1: 92.0% 8.0%

    Скриншоты

    Скачать .torrent

    Скачать торрент-файл бесплатно и на максимальной скорости!

    Как скачивать? · Что такое торрент? · Рейтинг и ограничения

    !ВНИМАНИЕ!
    Сайт не распространяет и не хранит электронные версии произведений, а занимается лишь лишь предоставлением доступа к создаваемому пользователями каталогу ссылок на торрент-файлы, которые содержат только списки хеш-сумм, убедительная просьба с жалобами обращаться напрямую к пользователю. Файлы для обмена на трекере предоставлены пользователями сайта, и администрация не несёт ответственности за их содержание. Просьба не заливать файлы, защищенные авторскими правами, а также файлы нелегального содержания!


    _________________
    [Профиль] [ЛС]
    Показать сообщения:    
    Ответить на тему

    Текущее время: Сегодня, в 14:48

    Часовой пояс: GMT + 2



    Вы не можете начинать темы
    Вы не можете отвечать на сообщения
    Вы не можете редактировать свои сообщения
    Вы не можете удалять свои сообщения
    Вы не можете голосовать в опросах
    Вы не можете прикреплять файлы к сообщениям
    Вы не можете скачивать файлы