BitTorrentTracker PerecTracker.org
BitTorrentTracker PerecTracker.org
    
Регистрация  ·  Вход
 
 · 
Забыли пароль?

  • Иллюзия обмана / Now You See Me (Луи Летерье / Louis Leterrier) [2013, Франция, США, триллер, криминал, детектив, BDRemux 1080p] [Extended Cut] Dub + 3x AVO (Гаврилов, Сербин, Володарский) + Sub Rus, Eng + Original Eng

    Ответить на тему
     
    Автор Сообщение

    Light

    Создавать темы 29-Июл-2016 23:27

           

    [Цитировать]

    Иллюзия обмана / Now You See Me
    Слоган: «Чем вы ближе, тем меньше вы видите»
    Страна: Франция, США
    Жанр: триллер, криминал, детектив
    Год выпуска: 2013
    Продолжительность: 02:04:48 (Extended Cut)
    Перевод 1: Профессиональный (дублированный) со вставками Сербина
    Перевод 2: Авторский (одноголосый закадровый) Ю. Сербин
    Перевод 3: Авторский (одноголосый закадровый) Л. Володарский
    Перевод 4: Авторский (одноголосый закадровый) А. Гаврилов
    Cубтитры: Русские (Voronine, Notabenoid), Английские
    Оригинальная аудиодорожка: английский--Режиссер: Луи Летерье / Louis Leterrier--В ролях: Джесси Айзенберг, Дэйв Франко, Морган Фримен, Марк Руффало, Айла Фишер, Мелани Лоран, Вуди Харрельсон, Майкл Кейн, Майкл Келли, Коммон, Дэвид Уоршофски, Джессика Линдси, Каитриона Бэлфи...--Описание: Команда иллюзионистов проворачивает дерзкие ограбления прямо во время своих шоу, играя в кошки-мышки с агентами ФБР--Доп. информация: | IMDB | КиноПоиск | Сэмпл |--Тип релиза: BDRemux 1080p Now You See Me 2013 1080p Blu-ray AVC DTS-HD MA 7.1-HDWinG
    Контейнер: MKV
    Видео: AVC, 1920x1080, 21386 kbps, 23.976 fps, 0.428 bit/pixel
    Аудио 1: DTS-HD MA 5.1, 48 kHz, 2281 kbps, 16-bit (DTS Core: 5.1 / 48 kHz / 1509 kbps / 16-bit) | Дубляж. со вставками Сербина
    Аудио 2: DTS-HD MA 7.1, 48 kHz, 5187 kbps, 24-bit (DTS Core: 5.1 / 48 kHz / 1509 kbps / 24-bit) | AVO. Сербин Ю.
    Аудио 3: DTS-HD MA 7.1, 48 kHz, 5152 kbps, 24-bit (DTS Core: 5.1 / 48 kHz / 1509 kbps / 24-bit)| AVO. Володарский Л.
    Аудио 4: DTS, 3/2 (L,C,R,l,r) + LFE ch, 48 kHz, 1509 kbps, 24-bit | AVO. Гаврилов А.
    Аудио 5: DTS-HD MA 7.1, 48 kHz, 5171 kbps, 24-bit (DTS Core: 5.1 / 48 kHz / 1509 kbps / 24-bit) | Original
    Аудио 6: AC3, 2/0 (L,R) ch, 48 kHz, 224 kbps | Commentary #1
    Аудио 7: AC3, 2/0 (L,R) ch, 48 kHz, 224 kbps | Commentary #2
    Формат субтитров: softsub (SRT)
    Скриншоты

    Ещё скриншоты

    MediaInfo

    General
    Unique ID : 197548457807808798646748510783510051607 (0x949E72F40541398886EC04A39EC27B17)
    Complete name : Now You See Me. 2013 BDRemux 1080p (Extended Cut).mkv
    Format : Matroska
    Format version : Version 4 / Version 2
    File size : 35.6 GiB
    Duration : 2h 4mn
    Overall bit rate mode : Variable
    Overall bit rate : 40.9 Mbps
    Movie name : Иллюзия обмана / Now You See Me (2013) BDRemux 1080p (Extended Cut)
    Encoded date : UTC 2016-07-17 19:30:53
    Writing application : mkvmerge v8.1.0 ('Psychedelic Postcard') 64bit
    Writing library : libebml v1.3.1 + libmatroska v1.4.2
    Video
    ID : 1
    Format : AVC
    Format/Info : Advanced Video Codec
    Format profile : High@L4.1
    Format settings, CABAC : Yes
    Format settings, ReFrames : 4 frames
    Codec ID : V_MPEG4/ISO/AVC
    Duration : 2h 4mn
    Bit rate mode : Variable
    Bit rate : 21.3 Mbps
    Maximum bit rate : 37.0 Mbps
    Width : 1 920 pixels
    Height : 1 080 pixels
    Display aspect ratio : 16:9
    Frame rate mode : Constant
    Frame rate : 23.976 (24000/1001) fps
    Color space : YUV
    Chroma subsampling : 4:2:0
    Bit depth : 8 bits
    Scan type : Progressive
    Bits/(Pixel*Frame) : 0.428
    Stream size : 18.6 GiB (52%)
    Title : Now You See Me. 2013 BDRemux (Extended Cut)
    Language : English
    Default : Yes
    Forced : No
    Audio #1
    ID : 2
    Format : DTS
    Format/Info : Digital Theater Systems
    Format profile : MA / Core
    Mode : 16
    Format settings, Endianness : Big
    Codec ID : A_DTS
    Duration : 2h 4mn
    Bit rate mode : Variable / Constant
    Bit rate : 2 281 Kbps / 1 509 Kbps
    Channel(s) : 6 channels
    Channel positions : Front: L C R, Side: L R, LFE
    Sampling rate : 48.0 KHz
    Frame rate : 93.750 fps (512 spf)
    Bit depth : 16 bits
    Compression mode : Lossless / Lossy
    Stream size : 1.99 GiB (6%)
    Title : Дубляж + AVO. Сербин Ю.
    Language : Russian
    Default : Yes
    Forced : No
    Audio #2
    ID : 3
    Format : DTS
    Format/Info : Digital Theater Systems
    Format profile : MA / Core
    Mode : 16
    Format settings, Endianness : Big
    Codec ID : A_DTS
    Duration : 2h 4mn
    Bit rate mode : Variable / Constant
    Bit rate : 5 187 Kbps / 1 509 Kbps
    Channel(s) : 8 channels / 6 channels
    Channel positions : Front: L C R, Side: L R, Back: L R, LFE / Front: L C R, Side: L R, LFE
    Sampling rate : 48.0 KHz
    Frame rate : 93.750 fps (512 spf)
    Bit depth : 24 bits
    Compression mode : Lossless / Lossy
    Stream size : 4.52 GiB (13%)
    Title : AVO. Сербин Ю.
    Language : Russian
    Default : No
    Forced : No
    Audio #3
    ID : 4
    Format : DTS
    Format/Info : Digital Theater Systems
    Format profile : MA / Core
    Mode : 16
    Format settings, Endianness : Big
    Codec ID : A_DTS
    Duration : 2h 0mn
    Bit rate mode : Variable / Constant
    Bit rate : 5 152 Kbps / 1 509 Kbps
    Channel(s) : 8 channels / 6 channels
    Channel positions : Front: L C R, Side: L R, Back: L R, LFE / Front: L C R, Side: L R, LFE
    Sampling rate : 48.0 KHz
    Frame rate : 93.750 fps (512 spf)
    Bit depth : 24 bits
    Compression mode : Lossless / Lossy
    Stream size : 4.35 GiB (12%)
    Title : AVO. Володарский Л.
    Language : Russian
    Default : No
    Forced : No
    Audio #4
    ID : 5
    Format : DTS
    Format/Info : Digital Theater Systems
    Mode : 16
    Format settings, Endianness : Big
    Codec ID : A_DTS
    Duration : 2h 4mn
    Bit rate mode : Constant
    Bit rate : 1 509 Kbps
    Channel(s) : 6 channels
    Channel positions : Front: L C R, Side: L R, LFE
    Sampling rate : 48.0 KHz
    Frame rate : 93.750 fps (512 spf)
    Bit depth : 24 bits
    Compression mode : Lossy
    Stream size : 1.32 GiB (4%)
    Title : AVO. Гаврилов А.
    Language : Russian
    Default : No
    Forced : No
    Audio #5
    ID : 6
    Format : DTS
    Format/Info : Digital Theater Systems
    Format profile : MA / Core
    Mode : 16
    Format settings, Endianness : Big
    Codec ID : A_DTS
    Duration : 2h 4mn
    Bit rate mode : Variable / Constant
    Bit rate : 5 171 Kbps / 1 509 Kbps
    Channel(s) : 8 channels / 6 channels
    Channel positions : Front: L C R, Side: L R, Back: L R, LFE / Front: L C R, Side: L R, LFE
    Sampling rate : 48.0 KHz
    Frame rate : 93.750 fps (512 spf)
    Bit depth : 24 bits
    Compression mode : Lossless / Lossy
    Stream size : 4.51 GiB (13%)
    Title : Original
    Language : English
    Default : No
    Forced : No
    Audio #6
    ID : 7
    Format : AC-3
    Format/Info : Audio Coding 3
    Format profile : Dolby Digital
    Mode extension : CM (complete main)
    Format settings, Endianness : Big
    Codec ID : A_AC3
    Duration : 2h 4mn
    Bit rate mode : Constant
    Bit rate : 224 Kbps
    Channel(s) : 2 channels
    Channel positions : Front: L R
    Sampling rate : 48.0 KHz
    Frame rate : 31.250 fps (1536 spf)
    Compression mode : Lossy
    Stream size : 200 MiB (1%)
    Title : Commentary 1
    Language : English
    Default : No
    Forced : No
    Audio #7
    ID : 8
    Format : AC-3
    Format/Info : Audio Coding 3
    Format profile : Dolby Digital
    Mode extension : CM (complete main)
    Format settings, Endianness : Big
    Codec ID : A_AC3
    Duration : 2h 4mn
    Bit rate mode : Constant
    Bit rate : 224 Kbps
    Channel(s) : 2 channels
    Channel positions : Front: L R
    Sampling rate : 48.0 KHz
    Frame rate : 31.250 fps (1536 spf)
    Compression mode : Lossy
    Stream size : 200 MiB (1%)
    Title : Commentary 2
    Language : English
    Default : No
    Forced : No
    Text #1
    ID : 9
    Format : UTF-8
    Codec ID : S_TEXT/UTF8
    Codec ID/Info : UTF-8 Plain Text
    Duration : 1h 56mn
    Bit rate : 133 bps
    Count of elements : 1844
    Stream size : 113 KiB (0%)
    Title : Voronine
    Language : Russian
    Default : No
    Forced : No
    Text #2
    ID : 10
    Format : UTF-8
    Codec ID : S_TEXT/UTF8
    Codec ID/Info : UTF-8 Plain Text
    Duration : 1h 56mn
    Bit rate : 125 bps
    Count of elements : 2080
    Stream size : 107 KiB (0%)
    Title : Notabenoid
    Language : Russian
    Default : No
    Forced : No
    Text #3
    ID : 11
    Format : UTF-8
    Codec ID : S_TEXT/UTF8
    Codec ID/Info : UTF-8 Plain Text
    Duration : 1h 56mn
    Bit rate : 76 bps
    Count of elements : 2074
    Stream size : 64.8 KiB (0%)
    Language : English
    Default : No
    Forced : No
    Menu
    00:00:00.000 : en:00:00:00.000
    00:08:26.548 : en:00:08:26.548
    00:14:41.923 : en:00:14:41.923
    00:21:25.868 : en:00:21:25.868
    00:32:02.003 : en:00:32:02.003
    00:39:29.158 : en:00:39:29.158
    00:47:07.199 : en:00:47:07.199
    00:56:43.441 : en:00:56:43.441
    01:04:35.371 : en:01:04:35.371
    01:10:23.135 : en:01:10:23.135
    01:20:04.549 : en:01:20:04.549
    01:29:01.002 : en:01:29:01.002
    01:35:22.883 : en:01:35:22.883
    01:44:06.281 : en:01:44:06.281
    01:45:47.507 : en:01:45:47.507
    01:54:24.607 : en:01:54:24.607
    Скачать .torrent

    Скачать торрент-файл бесплатно и на максимальной скорости!

    Как скачивать? · Что такое торрент? · Рейтинг и ограничения

    !ВНИМАНИЕ!
    Сайт не распространяет и не хранит электронные версии произведений, а занимается лишь лишь предоставлением доступа к создаваемому пользователями каталогу ссылок на торрент-файлы, которые содержат только списки хеш-сумм, убедительная просьба с жалобами обращаться напрямую к пользователю. Файлы для обмена на трекере предоставлены пользователями сайта, и администрация не несёт ответственности за их содержание. Просьба не заливать файлы, защищенные авторскими правами, а также файлы нелегального содержания!


    _________________
    [Профиль] [ЛС]
    Показать сообщения:    
    Ответить на тему

    Текущее время: Сегодня, в 14:22

    Часовой пояс: GMT + 2



    Вы не можете начинать темы
    Вы не можете отвечать на сообщения
    Вы не можете редактировать свои сообщения
    Вы не можете удалять свои сообщения
    Вы не можете голосовать в опросах
    Вы не можете прикреплять файлы к сообщениям
    Вы не можете скачивать файлы