BitTorrentTracker PerecTracker.org
BitTorrentTracker PerecTracker.org
    
Регистрация  ·  Вход
 
 · 
Забыли пароль?

  • Газонокосильщик 2: За пределами киберпространства / Lawnmower Man 2: Beyond Cyberspace (Фархад Манн / Farhad Mann) [1996, США, фантастика, боевик, триллер, WEB-DL 720p] MVO + DVO (НТВ) + AVO (Визгунов) + AVO (Санаев) + Sub Rus, Eng + Original Eng

    Ответить на тему
     
    Автор Сообщение

    Light

    Создавать темы 29-Июл-2016 23:27

           

    [Цитировать]

    Газонокосильщик 2: За пределами киберпространства / Lawnmower Man 2: Beyond Cyberspace
    Страна: США
    Жанр: фантастика, боевик, триллер
    Год выпуска: 1996
    Продолжительность: 01:33:04
    Перевод 1: Профессиональный (многоголосый закадровый) R5
    Перевод 2: Профессиональный (двухголосый закадровый) НТВ
    Перевод 3: Авторский (одноголосый закадровый) Визгунов
    Перевод 4: Авторский (одноголосый закадровый) Санаев
    Cубтитры: русские, английские
    Оригинальная аудиодорожка: английский
    Режиссер: Фархад Манн / Farhad Mann
    В ролях: Патрик Бергин, Мэтт Фрюэр, Остин О’Брайен, Эли Пугет, Камилль Купер, Патрик ЛаБрек, Кристал Селеста Грант, Шон П. Янг, Мэтью Валенсиа, Кевин Конуэй...
    Описание: Косильщик лужаек Джоуб не погиб в пламени, а стал обитателем виртуальной реальности и приступил к работе над созданием новой компьютерной системы — глобальной сети, связывающей все компьютеры так, чтобы было невозможно из нее высвободиться. Безумный Джоуб пытается воссоздать открытие своего «создателя», ученого Бенджамина Трэйса — универсальный компьютерный чип.
    Доп. информация:
    Оцифровка перевода Визгунова - Fikaloid.
    Оцифровка перевода НТВ - Home Video.
    Перевод Санаева с раздачи baldopin.
    Синхронизацию переводов: R5, Визгунова, Санаева - Dreven.
    Синхронизация перевода НТВ - JUSTKANT.
    Сэмпл: http://sendfile.su/1251671
    Тип релиза: WEB-DL 720p
    Контейнер: MKV
    Видео: 1280x534 (2.40:1), 23.976 fps, AVC, ~3803 Kbps, 0.232 bits/pixel
    Аудио 1: Russian, 48.0 KHz, AC3, 2 ch, 192 Kbps
    Аудио 2: Russian, 48.0 KHz, AC3, 2 ch, 192 Kbps - НТВ
    Аудио 3: Russian, 48.0 KHz, AC3, 2 ch, 192 Kbps - Сергей Визгунов
    Аудио 4: Russian, 48.0 KHz, AC3, 2 ch, 192 Kbps - Павел Санаев
    Аудио 5: English, 48.0 KHz, AC3, 6 ch, 448 Kbps

    MediaInfo

    General
    Unique ID : 205750405543737342304842534496390139138 (0x9ACA1632AB4E8415BC97D85721D8CD02)
    Complete name : C:\Lawnmower Man 2 - Beyond Cyberspace. WEB-DL 720p.mkv
    Format : Matroska
    Format version : Version 4 / Version 2
    File size : 3.33 GiB
    Duration : 1h 33mn
    Overall bit rate : 5 121 Kbps
    Movie name :
    Encoded date : UTC 2016-07-20 15:50:46
    Writing application : mkvmerge v9.3.1 ('Mask Machine') 64bit
    Writing library : libebml v1.3.4 + libmatroska v1.4.5
    Video
    ID : 1
    Format : AVC
    Format/Info : Advanced Video Codec
    Format profile : Main@L3.1
    Format settings, CABAC : No
    Format settings, ReFrames : 2 frames
    Codec ID : V_MPEG4/ISO/AVC
    Duration : 1h 32mn
    Bit rate : 3 905 Kbps
    Width : 1 280 pixels
    Height : 534 pixels
    Display aspect ratio : 2.40:1
    Frame rate mode : Constant
    Frame rate : 23.976 (23976/1000) fps
    Color space : YUV
    Chroma subsampling : 4:2:0
    Bit depth : 8 bits
    Scan type : Progressive
    Bits/(Pixel*Frame) : 0.238
    Stream size : 2.54 GiB (76%)
    Language : English
    Default : Yes
    Forced : No
    Color range : Limited
    Color primaries : BT.709
    Transfer characteristics : BT.709
    Matrix coefficients : BT.709
    Audio #1
    ID : 2
    Format : AC-3
    Format/Info : Audio Coding 3
    Mode extension : CM (complete main)
    Format settings, Endianness : Big
    Codec ID : A_AC3
    Duration : 1h 33mn
    Bit rate mode : Constant
    Bit rate : 192 Kbps
    Channel(s) : 2 channels
    Channel positions : Front: L R
    Sampling rate : 48.0 KHz
    Frame rate : 31.250 fps (1536 spf)
    Compression mode : Lossy
    Stream size : 128 MiB (4%)
    Language : Russian
    Default : Yes
    Forced : No
    Audio #2
    ID : 3
    Format : AC-3
    Format/Info : Audio Coding 3
    Mode extension : CM (complete main)
    Format settings, Endianness : Big
    Codec ID : A_AC3
    Duration : 1h 33mn
    Bit rate mode : Constant
    Bit rate : 192 Kbps
    Channel(s) : 2 channels
    Channel positions : Front: L R
    Sampling rate : 48.0 KHz
    Frame rate : 31.250 fps (1536 spf)
    Compression mode : Lossy
    Stream size : 128 MiB (4%)
    Title : НТВ
    Language : Russian
    Default : No
    Forced : No
    Audio #3
    ID : 4
    Format : AC-3
    Format/Info : Audio Coding 3
    Mode extension : CM (complete main)
    Format settings, Endianness : Big
    Codec ID : A_AC3
    Duration : 1h 33mn
    Bit rate mode : Constant
    Bit rate : 192 Kbps
    Channel(s) : 2 channels
    Channel positions : Front: L R
    Sampling rate : 48.0 KHz
    Frame rate : 31.250 fps (1536 spf)
    Compression mode : Lossy
    Stream size : 128 MiB (4%)
    Title : Сергей Визгунов
    Language : Russian
    Default : No
    Forced : No
    Audio #4
    ID : 5
    Format : AC-3
    Format/Info : Audio Coding 3
    Mode extension : CM (complete main)
    Format settings, Endianness : Big
    Codec ID : A_AC3
    Duration : 1h 33mn
    Bit rate mode : Constant
    Bit rate : 192 Kbps
    Channel(s) : 2 channels
    Channel positions : Front: L R
    Sampling rate : 48.0 KHz
    Frame rate : 31.250 fps (1536 spf)
    Compression mode : Lossy
    Stream size : 128 MiB (4%)
    Title : Павел Санаев
    Language : Russian
    Default : No
    Forced : No
    Audio #5
    ID : 6
    Format : AC-3
    Format/Info : Audio Coding 3
    Mode extension : CM (complete main)
    Format settings, Endianness : Big
    Codec ID : A_AC3
    Duration : 1h 33mn
    Bit rate mode : Constant
    Bit rate : 448 Kbps
    Channel(s) : 6 channels
    Channel positions : Front: L C R, Side: L R, LFE
    Sampling rate : 48.0 KHz
    Frame rate : 31.250 fps (1536 spf)
    Compression mode : Lossy
    Stream size : 298 MiB (9%)
    Language : English
    Default : No
    Forced : No
    Text #1
    ID : 7
    Format : UTF-8
    Codec ID : S_TEXT/UTF8
    Codec ID/Info : UTF-8 Plain Text
    Duration : 1h 27mn
    Bit rate : 72 bps
    Count of elements : 961
    Stream size : 46.6 KiB (0%)
    Language : Russian
    Default : No
    Forced : No
    Text #2
    ID : 8
    Format : UTF-8
    Codec ID : S_TEXT/UTF8
    Codec ID/Info : UTF-8 Plain Text
    Duration : 1h 26mn
    Bit rate : 50 bps
    Count of elements : 1367
    Stream size : 32.3 KiB (0%)
    Language : English
    Default : No
    Forced : No
    Menu
    00:00:00.000 : en:Title/Being Digital
    00:07:07.000 : en:Hotwiring The Future
    00:14:58.000 : en:Virtually There
    00:19:08.000 : en:Without A Trace
    00:23:21.000 : en:Kid Geniuses
    00:26:31.000 : en:Cyber Rider
    00:29:22.000 : en:Loose Caboose
    00:34:52.000 : en:Public Access
    00:39:05.000 : en:Autopilot
    00:42:23.000 : en:Out Of Memory
    00:46:32.000 : en:Unauthorized Files
    00:51:15.000 : en:Security Breach
    00:59:27.000 : en:Medical Attention
    01:01:53.000 : en:An Exact Replica
    01:03:51.000 : en:Presidential Address
    01:07:05.000 : en:Target Market
    01:10:27.000 : en:Chaos Theory
    01:13:20.000 : en:Business Loss
    01:16:45.000 : en:Alternate Route
    01:19:02.000 : en:System Overload
    01:25:16.000 : en:Goodbye, Mr. Chip
    01:27:54.000 : en:End Credits

    Скриншоты

    Скачать .torrent

    Скачать торрент-файл бесплатно и на максимальной скорости!

    Как скачивать? · Что такое торрент? · Рейтинг и ограничения

    !ВНИМАНИЕ!
    Сайт не распространяет и не хранит электронные версии произведений, а занимается лишь лишь предоставлением доступа к создаваемому пользователями каталогу ссылок на торрент-файлы, которые содержат только списки хеш-сумм, убедительная просьба с жалобами обращаться напрямую к пользователю. Файлы для обмена на трекере предоставлены пользователями сайта, и администрация не несёт ответственности за их содержание. Просьба не заливать файлы, защищенные авторскими правами, а также файлы нелегального содержания!


    _________________
    [Профиль] [ЛС]
    Показать сообщения:    
    Ответить на тему

    Текущее время: Сегодня, в 22:24

    Часовой пояс: GMT + 2



    Вы не можете начинать темы
    Вы не можете отвечать на сообщения
    Вы не можете редактировать свои сообщения
    Вы не можете удалять свои сообщения
    Вы не можете голосовать в опросах
    Вы не можете прикреплять файлы к сообщениям
    Вы не можете скачивать файлы