BitTorrentTracker PerecTracker.org
BitTorrentTracker PerecTracker.org
    
Регистрация  ·  Вход
 
 · 
Забыли пароль?

  • Заклятие / The Conjuring (Джеймс Ван / James Wan) [2013, США, ужасы, триллер, BDRemux 1080p] Dub (Blu-ray CEE) + 2x AVO (Горчаков, Дольский) + VO (Хихикающий доктор) + Sub Rus, Eng + Original Eng

    Ответить на тему
     
    Автор Сообщение

    Light

    Создавать темы 29-Июл-2016 23:27

           

    [Цитировать]

    -Заклятие / The Conjuring-Страна: США
    Жанр: ужасы, триллер
    Год выпуска: 2013
    Продолжительность: 01:51:57-Перевод: Профессиональный (дублированный) Blu-ray CEE
    Перевод 2: Авторский (одноголосый закадровый) Василий Горчаков
    Перевод 3: Авторский (одноголосый закадровый) Андрей Дольский
    Перевод 4: Одноголосый закадровый Хихикающий доктор
    Cубтитры: русские (форсированнsy и полные), английские
    Оригинальная аудиодорожка: английский-Режиссер: Джеймс Ван / James Wan
    В ролях: Вера Фармига, Патрик Уилсон, Рон Ливингстон, Лили Тейлор, Шэнли Касвелл, Хейли МакФарланд, Джои Кинг, Маккензи Фой, Кайла Дивер, Шэннон Кук-Чун-Описание: В основе картины лежит реальная история семьи Перрон, которые утверждали, что жили в окружении привидений, как добрых, так и злых. Духи населяли дом на Род-Айленде, в котором Перроны проживали в семидесятых годах XX века.-Сэмпл-Тип релиза: BDRemux 1080p
    Контейнер: MKV
    Видео: MPEG-4 AVC Video 24745 kbps 1080p / 23,976 fps / 16:9 / High Profile 4.1
    Аудио: Dolby Digital Audio Russian 5.1 / 48 kHz / 640 kbps | Дубляж
    Аудио 2: DTS-HD Master Audio Russian 5.1 / 48 kHz / 3072 kbps / 24-bit (DTS Core: 5.1 / 48 kHz / 1509 kbps / 24-bit) | Горчаков
    Аудио 3: DTS-HD Master Audio Russian 5.1 / 48 kHz / 3208 kbps / 24-bit (DTS Core: 5.1 / 48 kHz / 1509 kbps / 24-bit) | Дольский
    Аудио 4: DTS-HD Master Audio Russian 5.1 / 48 kHz / 3552 kbps / 24-bit (DTS Core: 5.1 / 48 kHz / 1509 kbps / 24-bit) | Хихидок
    Аудио 5: DTS-HD Master Audio English 5.1 / 48 kHz / 3546 kbps / 24-bit (DTS Core: 5.1 / 48 kHz / 1509 kbps / 24-bit)
    Формат субтитров: softsub (SRT)

    MI

    GeneralUnique ID : 247279245040305723688138581610507732458 (0xBA0840115B9A51B196FBB2097E5705EA)Complete name : P:\Ужасы\Заклятие (2013. The Conjuring).mkvFormat : MatroskaFormat version : Version 4 / Version 2File size : 30.4 GiBDuration : 1h 51mnOverall bit rate mode : VariableOverall bit rate : 38.8 MbpsMovie name : Release for RuTrackerEncoded date : UTC 2016-07-20 20:40:19Writing application : mkvmerge v9.0.1 ('Obstacles') 64bitWriting library : libebml v1.3.3 + libmatroska v1.4.4Cover : YesAttachments : cover.jpg
    VideoID : 1Format : AVCFormat/Info : Advanced Video CodecFormat profile : High@L4.1Format settings, CABAC : YesFormat settings, ReFrames : 2 framesCodec ID : V_MPEG4/ISO/AVCDuration : 1h 51mnBit rate mode : VariableBit rate : 24.7 MbpsWidth : 1 920 pixelsHeight : 1 080 pixelsDisplay aspect ratio : 16:9Frame rate mode : ConstantFrame rate : 23.976 (24000/1001) fpsColor space : YUVChroma subsampling : 4:2:0Bit depth : 8 bitsScan type : ProgressiveBits/(Pixel*Frame) : 0.498Stream size : 19.3 GiB (64%)Title : The.Conjuring.2013.COMPLETE.BLURAY-HDSLanguage : EnglishDefault : YesForced : Yes
    Audio #1ID : 2Format : AC-3Format/Info : Audio Coding 3Mode extension : CM (complete main)Format settings, Endianness : BigCodec ID : A_AC3Duration : 1h 51mnBit rate mode : ConstantBit rate : 640 KbpsChannel(s) : 6 channelsChannel positions : Front: L C R, Side: L R, LFESampling rate : 48.0 KHzFrame rate : 31.250 fps (1536 spf)Compression mode : LossyStream size : 513 MiB (2%)Title : ДубляжLanguage : RussianDefault : YesForced : No
    Audio #2ID : 3Format : DTSFormat/Info : Digital Theater SystemsFormat profile : MA / CoreMode : 16Format settings, Endianness : BigCodec ID : A_DTSDuration : 1h 51mnBit rate mode : Variable / ConstantBit rate : 3 072 Kbps / 1 509 KbpsChannel(s) : 6 channelsChannel positions : Front: L C R, Side: L R, LFESampling rate : 48.0 KHzFrame rate : 93.750 fps (512 spf)Bit depth : 24 bitsCompression mode : Lossless / LossyStream size : 2.45 GiB (8%)Title : Василий ГорчаковLanguage : RussianDefault : NoForced : No
    Audio #3ID : 4Format : DTSFormat/Info : Digital Theater SystemsFormat profile : MA / CoreMode : 16Format settings, Endianness : BigCodec ID : A_DTSDuration : 1h 51mnBit rate mode : Variable / ConstantBit rate : 3 208 Kbps / 1 509 KbpsChannel(s) : 6 channelsChannel positions : Front: L C R, Side: L R, LFESampling rate : 48.0 KHzFrame rate : 93.750 fps (512 spf)Bit depth : 24 bitsCompression mode : Lossless / LossyStream size : 2.51 GiB (8%)Title : Андрей ДольскийLanguage : RussianDefault : NoForced : No
    Audio #4ID : 5Format : DTSFormat/Info : Digital Theater SystemsFormat profile : MA / CoreMode : 16Format settings, Endianness : BigCodec ID : A_DTSDuration : 1h 51mnBit rate mode : Variable / ConstantBit rate : 3 552 Kbps / 1 509 KbpsChannel(s) : 6 channelsChannel positions : Front: L C R, Side: L R, LFESampling rate : 48.0 KHzFrame rate : 93.750 fps (512 spf)Bit depth : 24 bitsCompression mode : Lossless / LossyStream size : 2.78 GiB (9%)Title : Хихикающий докторLanguage : RussianDefault : NoForced : No
    Audio #5ID : 6Format : DTSFormat/Info : Digital Theater SystemsFormat profile : MA / CoreMode : 16Format settings, Endianness : BigCodec ID : A_DTSDuration : 1h 51mnBit rate mode : Variable / ConstantBit rate : 3 545 Kbps / 1 509 KbpsChannel(s) : 6 channelsChannel positions : Front: L C R, Side: L R, LFESampling rate : 48.0 KHzFrame rate : 93.750 fps (512 spf)Bit depth : 24 bitsCompression mode : Lossless / LossyStream size : 2.77 GiB (9%)Language : EnglishDefault : NoForced : No
    Text #1ID : 7Format : UTF-8Codec ID : S_TEXT/UTF8Codec ID/Info : UTF-8 Plain TextDuration : 1h 46mnBit rate : 2 bpsCount of elements : 34Stream size : 1.69 KiB (0%)Title : forcedLanguage : RussianDefault : YesForced : No
    Text #2ID : 8Format : UTF-8Codec ID : S_TEXT/UTF8Codec ID/Info : UTF-8 Plain TextDuration : 1h 47mnBit rate : 57 bpsCount of elements : 1109Stream size : 45.4 KiB (0%)Language : RussianDefault : NoForced : No
    Text #3ID : 9Format : UTF-8Codec ID : S_TEXT/UTF8Codec ID/Info : UTF-8 Plain TextDuration : 1h 44mnBit rate : 44 bpsCount of elements : 1065Stream size : 34.0 KiB (0%)Language : EnglishDefault : NoForced : No
    Menu00:00:00.000 : en:Chapter 100:08:52.990 : en:Chapter 200:19:26.665 : en:Chapter 300:29:15.754 : en:Chapter 400:40:50.239 : en:Chapter 500:51:06.730 : en:Chapter 600:59:55.466 : en:Chapter 701:10:37.149 : en:Chapter 801:21:03.108 : en:Chapter 901:28:59.292 : en:Chapter 1001:38:10.759 : en:Chapter 1101:46:08.361 : en:Chapter 12
    Скриншоты

    Зеркало


    Цитата:
    Цитата:

    • Озвучка Хихидока с ремукса schumaher.
    • За авторские озвучки спасибо форуму е180. За Горчакова благодарим: foxlight, ZombX, luka69, denis_mgn_1987, uchitel538, Hattori Hanzo, Эдуард, Guyver, idalgo, kaak, bla_, masta, axl-dr, jorn2, Алекс, Larry, SavineX78, Nadoelo, YoGuRt-82, Daniel Rock, SJC, michael_p2004, Диммон, фёдор александрович, Марлон, Denis2251, Kastro, jorn.vv, karantin66, Werewolf77, fryak, furria62, boroda, Lee Ray, MyxAmoP.
      За Дольского: fen, zeleniy, Pumamen, ZombX, idalgo, YoGuRt-82, каак, kRIPtograf, nolya, anvic, luka69, SJC, carnivale, Guyver, rammzez, Iceman, Daniel Rock, Skazhutin, dark1982, SavineX78, Марлон, Consul, safreks, Диммон, urassik, Tio, masta, denis_mgn_1987, _shurik_
    Скачать .torrent

    Скачать торрент-файл бесплатно и на максимальной скорости!

    Как скачивать? · Что такое торрент? · Рейтинг и ограничения

    !ВНИМАНИЕ!
    Сайт не распространяет и не хранит электронные версии произведений, а занимается лишь лишь предоставлением доступа к создаваемому пользователями каталогу ссылок на торрент-файлы, которые содержат только списки хеш-сумм, убедительная просьба с жалобами обращаться напрямую к пользователю. Файлы для обмена на трекере предоставлены пользователями сайта, и администрация не несёт ответственности за их содержание. Просьба не заливать файлы, защищенные авторскими правами, а также файлы нелегального содержания!


    _________________
    [Профиль] [ЛС]
    Показать сообщения:    
    Ответить на тему

    Текущее время: Сегодня, в 04:08

    Часовой пояс: GMT + 2



    Вы не можете начинать темы
    Вы не можете отвечать на сообщения
    Вы не можете редактировать свои сообщения
    Вы не можете удалять свои сообщения
    Вы не можете голосовать в опросах
    Вы не можете прикреплять файлы к сообщениям
    Вы не можете скачивать файлы