BitTorrentTracker PerecTracker.org
BitTorrentTracker PerecTracker.org
    
Регистрация  ·  Вход
 
 · 
Забыли пароль?

  • Раздолбай / Рейк / Rake / Сезон: 4 / Серии: 1-8 из 8 (Peter Duncan, Andrew Knight) [2016, Австралия, драма, комедия, PDTVRip] Original + Rus Sub (izolenta, kahlan)

    Ответить на тему
     
    Автор Сообщение

    rechyn

    Создавать темы 29-Июл-2016 22:18

           

    [Цитировать]

    Раздолбай / Рейк / Rake-Год выпуска: 2016
    Страна: Австралия
    Жанр: Драма, комедия, криминал
    Продолжительность: 55 мин
    Перевод: Субтитры, Нотабеноид
    Авторы: izolenta, kahlan, stailler
    Режиссёр: Peter Duncan, Andrew Knight
    В ролях: Richard Roxburgh, Matt Day, Adrienne Pickering, Russell Dykstra, Danielle Cormack, Caroline Brazier, Geoff Morrell
    Описание:
    Австралийский сериал об адвокате Кливере Грине с весьма подмоченным моральным обликом - женщины, кокаин, зависимость от азартных игр, неуплата налогов, сомнительные клиенты. Но адвокат он блестящий и часто берется за безнадежные дела, которыми более правильные коллеги не хотят портить репутацию.
    Доп. информация:
    Кроме париков и мантий, Австралия сохраняет принятое в Англии деление юристов на "солиситоров" (ведут дела с клиентом, собирают улики и нанимают ("инструктируют") "барристеров" (выступают в зале суда). Кливер - барристер, а Барни - солиситор.
    Внимание!
    Иногда мелькает нецензурная лексика!)) Временами мелькает обнажёнка.)
    Ссылка на предыдущие и альтернативные раздачи:
    Сэмпл: - http://multi-up.com/1102827
    Качество: PDTVRip
    Формат: MP4
    Видео: MPEG-4 Visual, 716х404 (1.772), 25 fps, 1516 kbps
    Аудио: AAC, 44.1 kHz, 2 ch, 64 kbps
    Субтитры: русские

    MI

    Полное имя : D:\Раздачи\Rake-4\rake.s04e01.pdtv.x264-izo.mp4
    Формат : MPEG-4
    Профиль формата : Base Media
    Идентификатор кодека : isom
    Размер файла : 632 Мбайт
    Продолжительность : 55 м.
    Режим общего битрейта : Переменный
    Общий поток : 1584 Кбит/сек
    Видео
    Идентификатор : 1
    Формат : MPEG-4 Visual
    Профиль формата : Simple@L3
    Параметр BVOP формата : Нет
    Параметр QPel формата : Нет
    Параметр GMC формата : Без точки перехода
    Параметр матрицы формата : Default (H.263)
    Идентификатор кодека : 20
    Продолжительность : 55 м.
    Битрейт : 1516 Кбит/сек
    Ширина : 716 пикселей
    Высота : 404 пикселя
    Соотношение сторон : 16:9
    Режим частоты кадров : Постоянный
    Частота кадров : 25,000 кадров/сек
    Цветовое пространство : YUV
    Субдискретизация насыщенности : 4:2:0
    Битовая глубина : 8 бит
    Тип развёртки : Прогрессивная
    Метод сжатия : С потерями
    Бит/(Пиксели*Кадры) : 0.210
    Размер потока : 605 Мбайт (96%)
    Аудио
    Идентификатор : 2
    Формат : AAC
    Формат/Информация : Advanced Audio Codec
    Профиль формата : LC
    Идентификатор кодека : 40
    Продолжительность : 55 м.
    Вид битрейта : Переменный
    Битрейт : 64,0 Кбит/сек
    Каналы : 2 канала
    Расположение каналов : Front: L R
    Частота : 44,1 КГц
    Метод сжатия : С потерями
    Размер потока : 25,5 Мбайт (4%)

    Скриншоты

    Скачать .torrent

    Скачать торрент-файл бесплатно и на максимальной скорости!

    Как скачивать? · Что такое торрент? · Рейтинг и ограничения

    !ВНИМАНИЕ!
    Сайт не распространяет и не хранит электронные версии произведений, а занимается лишь лишь предоставлением доступа к создаваемому пользователями каталогу ссылок на торрент-файлы, которые содержат только списки хеш-сумм, убедительная просьба с жалобами обращаться напрямую к пользователю. Файлы для обмена на трекере предоставлены пользователями сайта, и администрация не несёт ответственности за их содержание. Просьба не заливать файлы, защищенные авторскими правами, а также файлы нелегального содержания!


    _________________
    [Профиль] [ЛС]
    Показать сообщения:    
    Ответить на тему

    Текущее время: Сегодня, в 09:50

    Часовой пояс: GMT + 2



    Вы не можете начинать темы
    Вы не можете отвечать на сообщения
    Вы не можете редактировать свои сообщения
    Вы не можете удалять свои сообщения
    Вы не можете голосовать в опросах
    Вы не можете прикреплять файлы к сообщениям
    Вы не можете скачивать файлы