BitTorrentTracker PerecTracker.org
BitTorrentTracker PerecTracker.org
    
Регистрация  ·  Вход
 
 · 
Забыли пароль?

  • Гоморра / Gomorra / Сезон: 1 / Серии: 1-12 из 12 (Стефано Соллима, Клаудио Капеллини, Франческа Коменчини) [2014, Италия, Германия, драма, криминал, BDRip 720p] MVO (Первый канал) + Original (Ita)

    Ответить на тему
     
    Автор Сообщение

    rechyn

    Создавать темы 29-Июл-2016 22:07

           

    [Цитировать]

    Гоморра / GomorraГод выпуска: 2014
    Страна: Италия, Германия
    Производство: Sky, Fandango, La 7
    Жанр: драма, криминал
    Продолжительность: 12 х ~ 50:00
    Перевод: Профессиональный (многоголосый, закадровый), Первый телеканал
    Субтитры: Английские, Итальянские (отдельными файлами *srt )-Режиссёр: Стефано Соллима, Клаудио Капеллини, Франческа Коменчини-В ролях: Уолтер Липпа, Сальвио Эспозито, Фортунато Серлино, Марко Д’Амор, Фабио де Каро, Мария Пиа Кальцоне, Массимилиано Росси, Марко Палветти, Доменико Бальзамо, Массимильяно Росси, Энзо Сачеттино, Элена Стараче, Антонио Мило и другие...-Описание: Сериал "Гоморра" повествует об итальянской мафиозной корпорации несколько веков державшей в страхе весь Неаполь и в какой-то мере контролирующая его до сих пор. Сейчас все еще не оконченна война общества против бандитов и коррумпированных властей и мафиозные разборки здесь не хуже, чем на Сицилии....-Качество: HDRip
    Формат: MP4
    Видео кодек: H.264
    Аудио кодек: AAC
    Видео: MPEG-4 AVC, 1280x688p (1.85:1), 25 fps, ~2300 Kbps
    Аудио 1: Русский, AAC, 48.0 KHz, 2 ch, ~192 kbps
    Аудио 2: Итальянский, AAC, 48.0 KHz, 2 ch, ~192 kbps
    - -Ссылка на предыдущие и альтернативные раздачи

    MEDIA Info

    General
    Complete name : Gomorra.S01E01.720p.HD.mp4
    Format : MPEG-4
    Format profile : Base Media
    Codec ID : isom
    File size : 1.02 GiB
    Duration : 54mn 16s
    Overall bit rate mode : Variable
    Overall bit rate : 2 688 Kbps-Video
    ID : 1
    Format : AVC
    Format/Info : Advanced Video Codec
    Format profile : High@L3.1
    Format settings, CABAC : Yes
    Format settings, ReFrames : 3 frames
    Codec ID : avc1
    Codec ID/Info : Advanced Video Coding
    Duration : 54mn 16s
    Bit rate mode : Variable
    Bit rate : 2 298 Kbps
    Maximum bit rate : 14.0 Mbps
    Width : 1 280 pixels
    Height : 688 pixels
    Display aspect ratio : 1.85:1
    Frame rate mode : Constant
    Frame rate : 25.000 fps
    Color space : YUV
    Chroma subsampling : 4:2:0
    Bit depth : 8 bits
    Scan type : Progressive
    Bits/(Pixel*Frame) : 0.104
    Stream size : 892 MiB (85%)
    Writing library : x264 core 114
    Encoding settings : cabac=1 / ref=4 / deblock=1:-1:-1 / analyse=0x3:0x113 /
    me=umh / subme=8 / psy=1 / psy_rd=1.00:0.15 / mixed_ref=1 / me_range=16 / chroma_me=1 /
    trellis=1 / 8x8dct=1 / cqm=2 / deadzone=21,11 / fast_pskip=1 / chroma_qp_offset=-3 / threads=6
    / sliced_threads=0 / slices=1 / nr=0 / decimate=1 / interlaced=0 / constrained_intra=0 / bframes=3
    / b_pyramid=1 / b_adapt=2 / b_bias=0 / direct=1 / weightb=1 / open_gop=0 / weightp=2
    / keyint=125 / keyint_min=12 / scenecut=40 / intra_refresh=0 / rc_lookahead=50 / rc=crf
    / mbtree=1 / crf=21.0 / qcomp=0.60 / qpmin=4 / qpmax=69 / qpstep=4
    / vbv_maxrate=14000 / vbv_bufsize=13991 / crf_max=51.0 / nal_hrd=vbr / ip_ratio=1.40 / aq=1:1.00
    Language : English-Audio #1
    ID : 2
    Format : AAC
    Format/Info : Advanced Audio Codec
    Format profile : LC
    Codec ID : 40
    Duration : 54mn 15s
    Bit rate mode : Variable
    Bit rate : 192 Kbps
    Maximum bit rate : 197 Kbps
    Channel(s) : 2 channels
    Channel positions : Front: L R
    Sampling rate : 48.0 KHz
    Compression mode : Lossy
    Delay relative to video : 80ms
    Stream size : 74.5 MiB (7%)
    Language : Russian-Audio #2
    ID : 3
    Format : AAC
    Format/Info : Advanced Audio Codec
    Format profile : LC
    Codec ID : 40
    Duration : 54mn 15s
    Bit rate mode : Variable
    Bit rate : 192 Kbps
    Maximum bit rate : 197 Kbps
    Channel(s) : 2 channels
    Channel positions : Front: L R
    Sampling rate : 48.0 KHz
    Compression mode : Lossy
    Delay relative to video : 80ms
    Stream size : 74.5 MiB (7%)
    Language : Italian

    Скриншоты

    Скачать .torrent

    Скачать торрент-файл бесплатно и на максимальной скорости!

    Как скачивать? · Что такое торрент? · Рейтинг и ограничения

    !ВНИМАНИЕ!
    Сайт не распространяет и не хранит электронные версии произведений, а занимается лишь лишь предоставлением доступа к создаваемому пользователями каталогу ссылок на торрент-файлы, которые содержат только списки хеш-сумм, убедительная просьба с жалобами обращаться напрямую к пользователю. Файлы для обмена на трекере предоставлены пользователями сайта, и администрация не несёт ответственности за их содержание. Просьба не заливать файлы, защищенные авторскими правами, а также файлы нелегального содержания!


    _________________
    [Профиль] [ЛС]
    Показать сообщения:    
    Ответить на тему

    Текущее время: Сегодня, в 14:38

    Часовой пояс: GMT + 2



    Вы не можете начинать темы
    Вы не можете отвечать на сообщения
    Вы не можете редактировать свои сообщения
    Вы не можете удалять свои сообщения
    Вы не можете голосовать в опросах
    Вы не можете прикреплять файлы к сообщениям
    Вы не можете скачивать файлы