BitTorrentTracker PerecTracker.org
BitTorrentTracker PerecTracker.org
    
Регистрация  ·  Вход
 
 · 
Забыли пароль?

  • Гоморра / Gomorra / Сезон: 2 / Серии: 1-12 из 12 (Стефано Соллима, Клаудио Капеллини, Франческа Коменчини) [2016, Италия, Германия, драма, криминал, HDTVRip] MVO (Первый канал) + Original

    Ответить на тему
     
    Автор Сообщение

    rechyn

    Создавать темы 29-Июл-2016 22:02

           

    [Цитировать]

    -Гоморра | Gomorra--Год выпуска: 2016
    Страна: Италия, Германия
    Жанр: Криминал, драма
    Продолжительность: ~ 00:55:00-Перевод: Профессиональный (многоголосый закадровый) | Первый канал-Режиссёр: Стефано Соллима, Клаудио Купеллини, Франческа Коменчини-В ролях: Марко Д’Аморе, Фортунато Черлино, Мария Пиа Кальцоне, Сальваторе Эспозито, Марко Палветти, Доменико Бальзамо, Массимильяно Росси, Энзо Сачеттино, Элена Стараче, Антонио Мило и др.-Описание: Сериал "Гоморра" повествует об итальянской мафиозной корпорации несколько веков державшей в страхе весь Неаполь и в какой-то мере контролирующая его до сих пор. Сейчас все еще не оконченна война общества против бандитов и коррумпированных властей и мафиозные разборки здесь не хуже, чем на Сицилии.--| Ссылка на предыдущие и альтернативные раздачи |-Качество: HDTVRip
    Формат: AVI
    Видео: XviD, 720x384 (1.85:1), 25 fps, ~ 1300 kbps
    Аудио 1: MP3, 48 kHz, 2 ch, 128 kbps - Rus
    Аудио 2: MP3, 48 kHz, 2 ch, 128 kbps - Italian
    Субтитры: отсутствуют-

    Релиз

    Перевод: Профессиональный многоголосый [Первый канал]
    Работа со звуком rafwan123

    MediaInfo

    Общее
    Полное имя                               : F:\кино\Gomorra (S02) Perviy.kanal\Gomorra.S02E01.HDTVRip.Perviy.kanal.avi
    Формат                                   : AVI
    Формат/Информация                        : Audio Video Interleave
    Размер файла                             : 601 Мбайт
    Продолжительность                        : 52 м.
    Общий поток                              : 1587 Кбит/сек
    Программа кодирования                    : VirtualDubMod 1.5.10.3 | www.virtualdub-fr.org || (build 2550/release)
    Библиотека кодирования                   : VirtualDubMod build 2550/release
    Видео
    Идентификатор                            : 0
    Формат                                   : MPEG-4 Visual
    Профиль формата                          : Advanced Simple@L5
    Параметр BVOP формата                    : 1
    Параметр QPel формата                    : Нет
    Параметр GMC формата                     : Без точки перехода
    Параметр матрицы формата                 : Default (MPEG)
    Идентификатор кодека                     : XVID
    Идентификатор кодека/Подсказка           : XviD
    Продолжительность                        : 52 м.
    Битрейт                                  : 1317 Кбит/сек
    Ширина                                   : 720 пикселей
    Высота                                   : 384 пикселя
    Соотношение сторон                       : 1,85:1
    Частота кадров                           : 25,000 кадров/сек
    Цветовое пространство                    : YUV
    Субдискретизация насыщенности            : 4:2:0
    Битовая глубина                          : 8 бит
    Тип развёртки                            : Прогрессивная
    Метод сжатия                             : С потерями
    Бит/(Пиксели*Кадры)                      : 0.191
    Размер потока                            : 499 Мбайт (83%)
    Библиотека кодирования                   : XviD 73
    Аудио #1
    Идентификатор                            : 1
    Формат                                   : MPEG Audio
    Версия формата                           : Version 1
    Профиль формата                          : Layer 3
    Идентификатор кодека                     : 55
    Идентификатор кодека/Подсказка           : MP3
    Продолжительность                        : 52 м.
    Вид битрейта                             : Постоянный
    Битрейт                                  : 128 Кбит/сек
    Каналы                                   : 2 канала
    Частота                                  : 48,0 КГц
    Метод сжатия                             : С потерями
    Размер потока                            : 48,5 Мбайт (8%)
    Выравнивание                             : Соединение по промежуткам
    Продолжительность промежутка             : 40  мс. (1,00 видеокадр)
    Время предзагрузки промежутка            : 504  мс.
    Аудио #2
    Идентификатор                            : 2
    Формат                                   : MPEG Audio
    Версия формата                           : Version 1
    Профиль формата                          : Layer 3
    Режим                                    : Joint stereo
    Расширение режима                        : MS Stereo
    Идентификатор кодека                     : 55
    Идентификатор кодека/Подсказка           : MP3
    Продолжительность                        : 52 м.
    Вид битрейта                             : Постоянный
    Битрейт                                  : 128 Кбит/сек
    Каналы                                   : 2 канала
    Частота                                  : 48,0 КГц
    Метод сжатия                             : С потерями
    Размер потока                            : 48,5 Мбайт (8%)
    Выравнивание                             : Соединение по промежуткам
    Продолжительность промежутка             : 40  мс. (1,00 видеокадр)
    Время предзагрузки промежутка            : 504  мс.

    Скриншоты

    -
    Скачать .torrent

    Скачать торрент-файл бесплатно и на максимальной скорости!

    Как скачивать? · Что такое торрент? · Рейтинг и ограничения

    !ВНИМАНИЕ!
    Сайт не распространяет и не хранит электронные версии произведений, а занимается лишь лишь предоставлением доступа к создаваемому пользователями каталогу ссылок на торрент-файлы, которые содержат только списки хеш-сумм, убедительная просьба с жалобами обращаться напрямую к пользователю. Файлы для обмена на трекере предоставлены пользователями сайта, и администрация не несёт ответственности за их содержание. Просьба не заливать файлы, защищенные авторскими правами, а также файлы нелегального содержания!


    _________________
    [Профиль] [ЛС]
    Показать сообщения:    
    Ответить на тему

    Текущее время: Сегодня, в 04:14

    Часовой пояс: GMT + 2



    Вы не можете начинать темы
    Вы не можете отвечать на сообщения
    Вы не можете редактировать свои сообщения
    Вы не можете удалять свои сообщения
    Вы не можете голосовать в опросах
    Вы не можете прикреплять файлы к сообщениям
    Вы не можете скачивать файлы