BitTorrentTracker PerecTracker.org
BitTorrentTracker PerecTracker.org
    
Регистрация  ·  Вход
 
 · 
Забыли пароль?

  • Уэйворд Пайнс / Уэйуорд Пайнс / Сосны / Wayward Pines / Сезон: 2 / Серии: 1-10 из 10 (Джефф Томас, Зал Батманглидж, Тим Хантер) [2016, драма, триллер, фантастика, WEB-DLRip] MVO (Jaskier) + Original

    Ответить на тему
     
    Автор Сообщение

    rechyn

    Создавать темы 29-Июл-2016 21:59

           

    [Цитировать]

    --Уэйворд Пайнс | Wayward Pines--✧ Год выпуска: 2016
    ✧ Страна: США
    ✧ Жанр: драма, триллер, фантастика
    ✧ Продолжительность: ~ 00:43:00-✧ Перевод: Профессиональный (многоголосый закадровый) | Jaskier-✧ Режиссёр: Джефф Томас, Зал Батманглидж, Тим Хантер-✧ В ролях: Джейсон Патрик, Нимрат Каур, Джош Хельман, Том Стивенс, Кейси Рол, Хоуп Дэвис и др.-✧ Описание: События новой главы шоу начнут развиваться с того момента, когда в Уэйуорд Пайнс вспыхнет бунт против диктатуры Первого поколения. Одним из тех, кто окажется в самой гуще событий, будет герой — Ксандер. Ксандер — уверенный в себе и весьма обаятельный парень, который пытается изнутри разрушить установленный в городе строй. Кроме того, юноша находится не в ладах с местной правящей верхушкой..--| Ссылка на предыдущие и альтернативные раздачи-✧ Качество: WEB-DLRip
    ✧ Формат: AVI
    ✧ Видео: XviD, 720x400 (16:9), 23,976 fps, ~ 1500 kbps
    ✧ Аудио #1: MP3, 48 kHz, 2 ch, 128 kbps - Rus
    ✧ Аудио #2: MP3, 48 kHz, 2 ch, 128 kbps - Eng
    ✧ Субтитры: отсутствуют-✧ полностью отсутствует реклама-

    〤 Релиз 〤

    Перевод и озвучивание Студия Jaskier
    Перевод Ирина Гвозденко

    〤 MediaInfo 〤

    Общее
    Полное имя                               : D:\загрузки\Wayward Pines (Season 02) Jaskier\Wayward.Pines.S02E01XviD.Jaskier.avi
    Формат                                   : AVI
    Формат/Информация                        : Audio Video Interleave
    Размер файла                             : 550 Мбайт
    Продолжительность                        : 44 м.
    Общий поток                              : 1716 Кбит/сек
    Программа кодирования                    : VirtualDubMod 1.5.10.3 | www.virtualdub-fr.org || (build 2550/release)
    Библиотека кодирования                   : VirtualDubMod build 2550/release
    Видео
    Идентификатор                            : 0
    Формат                                   : MPEG-4 Visual
    Профиль формата                          : Advanced Simple@L5
    Параметр BVOP формата                    : 1
    Параметр QPel формата                    : Нет
    Параметр GMC формата                     : Без точки перехода
    Параметр матрицы формата                 : Default (MPEG)
    Идентификатор кодека                     : XVID
    Идентификатор кодека/Подсказка           : XviD
    Продолжительность                        : 44 м.
    Битрейт                                  : 1446 Кбит/сек
    Ширина                                   : 720 пикселей
    Высота                                   : 400 пикселей
    Соотношение сторон                       : 16:9
    Частота кадров                           : 23,976 кадра/сек
    Цветовое пространство                    : YUV
    Субдискретизация насыщенности            : 4:2:0
    Битовая глубина                          : 8 бит
    Тип развёртки                            : Прогрессивная
    Метод сжатия                             : С потерями
    Бит/(Пиксели*Кадры)                      : 0.209
    Размер потока                            : 464 Мбайт (84%)
    Библиотека кодирования                   : XviD 73
    Аудио #1
    Идентификатор                            : 1
    Формат                                   : MPEG Audio
    Версия формата                           : Version 1
    Профиль формата                          : Layer 3
    Идентификатор кодека                     : 55
    Идентификатор кодека/Подсказка           : MP3
    Продолжительность                        : 44 м.
    Вид битрейта                             : Постоянный
    Битрейт                                  : 128 Кбит/сек
    Каналы                                   : 2 канала
    Частота                                  : 48,0 КГц
    Метод сжатия                             : С потерями
    Размер потока                            : 41,1 Мбайт (7%)
    Выравнивание                             : Соединение по промежуткам
    Продолжительность промежутка             : 42  мс. (1,00 видеокадр)
    Время предзагрузки промежутка            : 504  мс.
    Аудио #2
    Идентификатор                            : 2
    Формат                                   : MPEG Audio
    Версия формата                           : Version 1
    Профиль формата                          : Layer 3
    Режим                                    : Joint stereo
    Расширение режима                        : MS Stereo
    Идентификатор кодека                     : 55
    Идентификатор кодека/Подсказка           : MP3
    Продолжительность                        : 44 м.
    Вид битрейта                             : Постоянный
    Битрейт                                  : 128 Кбит/сек
    Каналы                                   : 2 канала
    Частота                                  : 48,0 КГц
    Метод сжатия                             : С потерями
    Размер потока                            : 41,1 Мбайт (7%)
    Выравнивание                             : Соединение по промежуткам
    Продолжительность промежутка             : 42  мс. (1,00 видеокадр)
    Время предзагрузки промежутка            : 504  мс.

    〤 Скриншоты 〤

    〤 Раздача ведется путем добавления новых серий 〤

    Когда раздача ведётся путём добавления новых серий, при каждом добавлении создётся новый торрент. Чтобы начать докачку новой серии, пользователям необходимо сделать следующее:
    (1) остановить скачивание,
    (2) удалить старый торрент у себя из клиента (старые серии удалять не надо),
    (3) скачать новый торрент и запустить его у себя в клиенте вместо старого, при этом указать клиенту путь в старую папку, куда и должно происходить скачивание новых серий.
    Ваш клиент при этом должен произвести хеширование (проверку) старой папки (если не производит сам - помогите ему сделать это), и будет докачивать только те серии, которых у вас ещё нет. Старые серии при этом не удаляются, а продолжают раздаваться!
    Eсли вы уже удалили старые серии, то предотвратить повторную закачку старых серий можно, отжав галочку в соответсвующих местах при запуске нового торрента. По возможности, желательно не удалять старые серии как можно дольше, чтобы релизёр не столько продолжал раздавать старые серии, а смог сконцентрироваться на новых.
    -
    Скачать .torrent

    Скачать торрент-файл бесплатно и на максимальной скорости!

    Как скачивать? · Что такое торрент? · Рейтинг и ограничения

    !ВНИМАНИЕ!
    Сайт не распространяет и не хранит электронные версии произведений, а занимается лишь лишь предоставлением доступа к создаваемому пользователями каталогу ссылок на торрент-файлы, которые содержат только списки хеш-сумм, убедительная просьба с жалобами обращаться напрямую к пользователю. Файлы для обмена на трекере предоставлены пользователями сайта, и администрация не несёт ответственности за их содержание. Просьба не заливать файлы, защищенные авторскими правами, а также файлы нелегального содержания!


    _________________
    [Профиль] [ЛС]
    Показать сообщения:    
    Ответить на тему

    Текущее время: Сегодня, в 00:06

    Часовой пояс: GMT + 2



    Вы не можете начинать темы
    Вы не можете отвечать на сообщения
    Вы не можете редактировать свои сообщения
    Вы не можете удалять свои сообщения
    Вы не можете голосовать в опросах
    Вы не можете прикреплять файлы к сообщениям
    Вы не можете скачивать файлы