BitTorrentTracker PerecTracker.org
BitTorrentTracker PerecTracker.org
    
Регистрация  ·  Вход
 
 · 
Забыли пароль?

  • (Score) Вампир атомного века (Вампир атомной эры)/Оборотень (Оборотень в женском общежитии) / Seddok, L'Erede Di Satana (Atom Age Vampire)/Lycanthropus (Werewolf In A Girls' Dormitor) (by Armando Trovajoli) - 2014 (1961), FLAC (tracks+.cue)

    Ответить на тему
     
    Автор Сообщение

    Columb

    Создавать темы 16-Мар-2014 18:48

           

    [Цитировать]

    Вампир атомного века (Вампир атомной эры)/
    Оборотень (Оборотень в женском общежитии)
    *
    Seddok, L'Erede Di Satana (Atom Age Vampire)/
    Lycanthropus (Werewolf In A Girls' Dormitor)

    Жанр: Score
    Композитор: Armando Trovajoli
    Год выпуска диска: 2014
    Год выпуска фильма: 1960-61
    Страна-производитель диска: Italy
    Издатель (лейбл): Digitmovies
    Номер по каталогу: CDDM249
    Аудиокодек: FLAC (*.flac)
    Тип рипа: tracks+.cue
    Битрейт аудио: lossless
    Продолжительность: 01:12:09
    Источник: собственный рип
    Наличие сканов в содержимом раздачи: да
    Limited 500 Copies

    Треклист

    Треклист:
    1. Seddok, L’erede Di Satana (Seq.1- Titoli) (01:14)
    2. Seddok, L’erede Di Satana (Seq.2) (03:24)
    3. Seddok, L’erede Di Satana (Seq.3) (02:00)
    4. Seddok, L’erede Di Satana (Seq.4) (01:55)
    5. Seddok, L’erede Di Satana (Seq.5) (02:12)
    6. Seddok, L’erede Di Satana (Seq.6) (02:12)
    7. Seddok, L’erede Di Satana (Seq.7) (02:33)
    8. Seddok, L’erede Di Satana (Seq.8) (03:13)
    9. Seddok, L’erede Di Satana (Seq.9) (03:39)
    10. Seddok, L’erede Di Satana (Seq.10) (01:46)
    11. Seddok, L’erede Di Satana (Seq.11) (01:55)
    12. Seddok, L’erede Di Satana (Seq.12) (02:13)
    13. Seddok, L’erede Di Satana (Seq.13) (01:44)
    14. Seddok, L’erede Di Satana (Seq.14) (01:41)
    15. Seddok, L’erede Di Satana (Seq.15) (02:38)
    16. Seddok, L’erede Di Satana (Seq.16) (02:28)
    17. Seddok, L’erede Di Satana (Seq.17) (03:27)
    18. Seddok, L’erede Di Satana (Seq.18 - Finale) (02:07)
    19. Lycanthropus (Seq.1 - Titoli) (01:44)
    20. Lycanthropus (Seq.2) (01:20)
    21. Lycanthropus (Seq.3) (02:04)
    22. Lycanthropus (Seq.4) (01:12)
    23. Lycanthropus (Seq.5) (01:22)
    24. Lycanthropus (Seq.6) (02:34)
    25. Lycanthropus (Seq.7) (02:23)
    26. Lycanthropus (Seq.8) (02:37)
    27. Lycanthropus (Seq.9) (02:03)
    28. Lycanthropus (Seq.10) (02:45)
    29. Lycanthropus (Seq.11) (01:28)
    30. Lycanthropus (Seq.12) (03:25)
    31. Lycanthropus (Seq.13) (03:10)
    32. Lycanthropus (Seq.14 - Finale) (01:41)

    Лог создания рипа

    Exact Audio Copy V1.0 beta 3 from 29. August 2011
    EAC extraction logfile from 13. March 2014, 10:37
    Armando Trovajoli / Seddok l' Erede di Satana - Lycanthropus
    Used drive : PLEXTOR DVDR PX-L890SA Adapter: 0 ID: 1
    Read mode : SecureUtilize accurate stream : YesDefeat audio cache : YesMake use of C2 pointers : No
    Read offset correction : 6Overread into Lead-In and Lead-Out : NoFill up missing offset samples with silence : YesDelete leading and trailing silent blocks : NoNull samples used in CRC calculations : YesUsed interface : Native Win32 interface for Win NT & 2000Gap handling : Appended to previous track
    Used output format : User Defined EncoderSelected bitrate : 768 kBit/sQuality : HighAdd ID3 tag : NoCommand line compressor : C:\Program Files\Exact Audio Copy\FLAC\FLAC.EXEAdditional command line options : -V -8 -T "Genre=%genre%" -T "Artist=%artist%" -T "Title=%title%" -T "Album=%albumtitle%" -T "Date=%year%" -T "Tracknumber=%tracknr%" -T "Comment=%comment%" %source%
    TOC of the extracted CD
    Track | Start | Length | Start sector | End sector --------------------------------------------------------- 1 | 0:00.00 | 1:16.54 | 0 | 5753 2 | 1:16.54 | 3:26.08 | 5754 | 21211 3 | 4:42.62 | 2:02.26 | 21212 | 30387 4 | 6:45.13 | 1:57.42 | 30388 | 39204 5 | 8:42.55 | 2:14.57 | 39205 | 49311 6 | 10:57.37 | 2:14.61 | 49312 | 59422 7 | 13:12.23 | 2:35.73 | 59423 | 71120 8 | 15:48.21 | 3:15.63 | 71121 | 85808 9 | 19:04.09 | 3:41.73 | 85809 | 102456 10 | 22:46.07 | 1:48.20 | 102457 | 110576 11 | 24:34.27 | 1:57.10 | 110577 | 119361 12 | 26:31.37 | 2:15.20 | 119362 | 129506 13 | 28:46.57 | 1:46.25 | 129507 | 137481 14 | 30:33.07 | 1:43.61 | 137482 | 145267 15 | 32:16.68 | 2:40.61 | 145268 | 157328 16 | 34:57.54 | 2:30.25 | 157329 | 168603 17 | 37:28.04 | 3:29.42 | 168604 | 184320 18 | 40:57.46 | 2:11.59 | 184321 | 194204 19 | 43:09.30 | 1:46.50 | 194205 | 202204 20 | 44:56.05 | 1:22.49 | 202205 | 208403 21 | 46:18.54 | 2:06.18 | 208404 | 217871 22 | 48:24.72 | 1:14.46 | 217872 | 223467 23 | 49:39.43 | 1:24.46 | 223468 | 229813 24 | 51:04.14 | 2:36.13 | 229814 | 241526 25 | 53:40.27 | 2:25.53 | 241527 | 252454 26 | 56:06.05 | 2:39.01 | 252455 | 264380 27 | 58:45.06 | 2:05.65 | 264381 | 273820 28 | 60:50.71 | 2:47.47 | 273821 | 286392 29 | 63:38.43 | 1:30.49 | 286393 | 293191 30 | 65:09.17 | 3:27.29 | 293192 | 308745 31 | 68:36.46 | 3:12.26 | 308746 | 323171 32 | 71:48.72 | 1:41.29 | 323172 | 330775
    Track 1
    Filename F:\torrent\Seddok lErede di Satana_Lycanthropus\score\01 Seddok, L’erede Di Satana (Seq.1- Titoli).wav
    Pre-gap length 0:00:02.00
    Peak level 82.6 % Extraction speed 4.1 X Track quality 100.0 % Test CRC C7C998D6 Copy CRC C7C998D6 Track not present in AccurateRip database Copy OK
    Track 2
    Filename F:\torrent\Seddok lErede di Satana_Lycanthropus\score\02 Seddok, L’erede Di Satana (Seq.2).wav
    Pre-gap length 0:00:02.00
    Peak level 69.1 % Extraction speed 5.7 X Track quality 100.0 % Test CRC E8B2E544 Copy CRC E8B2E544 Track not present in AccurateRip database Copy OK
    Track 3
    Filename F:\torrent\Seddok lErede di Satana_Lycanthropus\score\03 Seddok, L’erede Di Satana (Seq.3).wav
    Pre-gap length 0:00:02.00
    Peak level 81.4 % Extraction speed 5.4 X Track quality 100.0 % Test CRC 28D623AA Copy CRC 28D623AA Track not present in AccurateRip database Copy OK
    Track 4
    Filename F:\torrent\Seddok lErede di Satana_Lycanthropus\score\04 Seddok, L’erede Di Satana (Seq.4).wav
    Pre-gap length 0:00:02.00
    Peak level 52.1 % Extraction speed 5.6 X Track quality 100.0 % Test CRC B9A28B17 Copy CRC B9A28B17 Track not present in AccurateRip database Copy OK
    Track 5
    Filename F:\torrent\Seddok lErede di Satana_Lycanthropus\score\05 Seddok, L’erede Di Satana (Seq.5).wav
    Pre-gap length 0:00:02.00
    Peak level 65.9 % Extraction speed 5.0 X Track quality 99.9 % Test CRC 33E18704 Copy CRC 33E18704 Track not present in AccurateRip database Copy OK
    Track 6
    Filename F:\torrent\Seddok lErede di Satana_Lycanthropus\score\06 Seddok, L’erede Di Satana (Seq.6).wav
    Pre-gap length 0:00:02.00
    Peak level 48.9 % Extraction speed 6.1 X Track quality 100.0 % Test CRC 547FA70B Copy CRC 547FA70B Track not present in AccurateRip database Copy OK
    Track 7
    Filename F:\torrent\Seddok lErede di Satana_Lycanthropus\score\07 Seddok, L’erede Di Satana (Seq.7).wav
    Pre-gap length 0:00:02.00
    Peak level 66.2 % Extraction speed 6.7 X Track quality 100.0 % Test CRC 24467E5D Copy CRC 24467E5D Track not present in AccurateRip database Copy OK
    Track 8
    Filename F:\torrent\Seddok lErede di Satana_Lycanthropus\score\08 Seddok, L’erede Di Satana (Seq.8).wav
    Pre-gap length 0:00:02.00
    Peak level 50.7 % Extraction speed 6.3 X Track quality 99.9 % Test CRC 20B259DC Copy CRC 20B259DC Track not present in AccurateRip database Copy OK
    Track 9
    Filename F:\torrent\Seddok lErede di Satana_Lycanthropus\score\09 Seddok, L’erede Di Satana (Seq.9).wav
    Pre-gap length 0:00:02.00
    Peak level 63.3 % Extraction speed 7.8 X Track quality 100.0 % Test CRC 38C75E01 Copy CRC 38C75E01 Track not present in AccurateRip database Copy OK
    Track 10
    Filename F:\torrent\Seddok lErede di Satana_Lycanthropus\score\10 Seddok, L’erede Di Satana (Seq.10).wav
    Pre-gap length 0:00:02.00
    Peak level 41.4 % Extraction speed 6.9 X Track quality 100.0 % Test CRC A049BB8E Copy CRC A049BB8E Track not present in AccurateRip database Copy OK
    Track 11
    Filename F:\torrent\Seddok lErede di Satana_Lycanthropus\score\11 Seddok, L’erede Di Satana (Seq.11).wav
    Pre-gap length 0:00:02.00
    Peak level 60.1 % Extraction speed 7.3 X Track quality 100.0 % Test CRC D8FB212F Copy CRC D8FB212F Track not present in AccurateRip database Copy OK
    Track 12
    Filename F:\torrent\Seddok lErede di Satana_Lycanthropus\score\12 Seddok, L’erede Di Satana (Seq.12).wav
    Pre-gap length 0:00:02.00
    Peak level 78.4 % Extraction speed 7.8 X Track quality 100.0 % Test CRC A9B6B403 Copy CRC A9B6B403 Track not present in AccurateRip database Copy OK
    Track 13
    Filename F:\torrent\Seddok lErede di Satana_Lycanthropus\score\13 Seddok, L’erede Di Satana (Seq.13).wav
    Pre-gap length 0:00:02.00
    Peak level 70.6 % Extraction speed 7.5 X Track quality 100.0 % Test CRC CF4263DB Copy CRC CF4263DB Track not present in AccurateRip database Copy OK
    Track 14
    Filename F:\torrent\Seddok lErede di Satana_Lycanthropus\score\14 Seddok, L’erede Di Satana (Seq.14).wav
    Pre-gap length 0:00:02.00
    Peak level 60.3 % Extraction speed 7.5 X Track quality 100.0 % Test CRC F9CC3EED Copy CRC F9CC3EED Track not present in AccurateRip database Copy OK
    Track 15
    Filename F:\torrent\Seddok lErede di Satana_Lycanthropus\score\15 Seddok, L’erede Di Satana (Seq.15).wav
    Pre-gap length 0:00:02.00
    Peak level 72.0 % Extraction speed 8.2 X Track quality 100.0 % Test CRC 66484D8D Copy CRC 66484D8D Track not present in AccurateRip database Copy OK
    Track 16
    Filename F:\torrent\Seddok lErede di Satana_Lycanthropus\score\16 Seddok, L’erede Di Satana (Seq.16).wav
    Pre-gap length 0:00:02.00
    Peak level 70.7 % Extraction speed 8.5 X Track quality 100.0 % Test CRC AEC1BAF2 Copy CRC AEC1BAF2 Track not present in AccurateRip database Copy OK
    Track 17
    Filename F:\torrent\Seddok lErede di Satana_Lycanthropus\score\17 Seddok, L’erede Di Satana (Seq.17).wav
    Pre-gap length 0:00:02.00
    Peak level 65.5 % Extraction speed 9.2 X Track quality 100.0 % Test CRC 7E6491C5 Copy CRC 7E6491C5 Track not present in AccurateRip database Copy OK
    Track 18
    Filename F:\torrent\Seddok lErede di Satana_Lycanthropus\score\18 Seddok, L’erede Di Satana (Seq.18 - Finale).wav
    Pre-gap length 0:00:02.00
    Peak level 61.2 % Extraction speed 7.1 X Track quality 99.9 % Test CRC D3B0BC28 Copy CRC D3B0BC28 Track not present in AccurateRip database Copy OK
    Track 19
    Filename F:\torrent\Seddok lErede di Satana_Lycanthropus\score\19 Lycanthropus (Seq.1 - Titoli).wav
    Pre-gap length 0:00:04.00
    Peak level 76.2 % Extraction speed 8.2 X Track quality 100.0 % Test CRC AF5B2406 Copy CRC AF5B2406 Track not present in AccurateRip database Copy OK
    Track 20
    Filename F:\torrent\Seddok lErede di Satana_Lycanthropus\score\20 Lycanthropus (Seq.2).wav
    Pre-gap length 0:00:02.00
    Peak level 70.7 % Extraction speed 5.9 X Track quality 99.8 % Test CRC 2A47359D Copy CRC 2A47359D Track not present in AccurateRip database Copy OK
    Track 21
    Filename F:\torrent\Seddok lErede di Satana_Lycanthropus\score\21 Lycanthropus (Seq.3).wav
    Pre-gap length 0:00:02.00
    Peak level 75.7 % Extraction speed 9.0 X Track quality 100.0 % Test CRC C30E767B Copy CRC C30E767B Track not present in AccurateRip database Copy OK
    Track 22
    Filename F:\torrent\Seddok lErede di Satana_Lycanthropus\score\22 Lycanthropus (Seq.4).wav
    Pre-gap length 0:00:02.00
    Peak level 63.3 % Extraction speed 7.6 X Track quality 100.0 % Test CRC 9A419412 Copy CRC 9A419412 Track not present in AccurateRip database Copy OK
    Track 23
    Filename F:\torrent\Seddok lErede di Satana_Lycanthropus\score\23 Lycanthropus (Seq.5).wav
    Pre-gap length 0:00:02.00
    Peak level 64.1 % Extraction speed 8.0 X Track quality 100.0 % Test CRC 544FF827 Copy CRC 544FF827 Track not present in AccurateRip database Copy OK
    Track 24
    Filename F:\torrent\Seddok lErede di Satana_Lycanthropus\score\24 Lycanthropus (Seq.6).wav
    Pre-gap length 0:00:02.00
    Peak level 57.3 % Extraction speed 9.5 X Track quality 100.0 % Test CRC CAF269FF Copy CRC CAF269FF Track not present in AccurateRip database Copy OK
    Track 25
    Filename F:\torrent\Seddok lErede di Satana_Lycanthropus\score\25 Lycanthropus (Seq.7).wav
    Pre-gap length 0:00:02.00
    Peak level 61.1 % Extraction speed 9.5 X Track quality 100.0 % Test CRC 691B46DC Copy CRC 691B46DC Track not present in AccurateRip database Copy OK
    Track 26
    Filename F:\torrent\Seddok lErede di Satana_Lycanthropus\score\26 Lycanthropus (Seq.8).wav
    Pre-gap length 0:00:02.00
    Peak level 63.5 % Extraction speed 8.4 X Track quality 99.9 % Test CRC C84C8AE9 Copy CRC C84C8AE9 Track not present in AccurateRip database Copy OK
    Track 27
    Filename F:\torrent\Seddok lErede di Satana_Lycanthropus\score\27 Lycanthropus (Seq.9).wav
    Pre-gap length 0:00:02.00
    Peak level 65.4 % Extraction speed 9.7 X Track quality 100.0 % Test CRC 1301D4CB Copy CRC 1301D4CB Track not present in AccurateRip database Copy OK
    Track 28
    Filename F:\torrent\Seddok lErede di Satana_Lycanthropus\score\28 Lycanthropus (Seq.10).wav
    Pre-gap length 0:00:02.00
    Peak level 57.5 % Extraction speed 8.8 X Track quality 99.9 % Test CRC CF2B123B Copy CRC CF2B123B Track not present in AccurateRip database Copy OK
    Track 29
    Filename F:\torrent\Seddok lErede di Satana_Lycanthropus\score\29 Lycanthropus (Seq.11).wav
    Pre-gap length 0:00:02.00
    Peak level 74.5 % Extraction speed 7.1 X Track quality 99.8 % Test CRC 6FDD0E2E Copy CRC 6FDD0E2E Track not present in AccurateRip database Copy OK
    Track 30
    Filename F:\torrent\Seddok lErede di Satana_Lycanthropus\score\30 Lycanthropus (Seq.12).wav
    Pre-gap length 0:00:02.00
    Peak level 59.8 % Extraction speed 10.8 X Track quality 100.0 % Test CRC 95B53835 Copy CRC 95B53835 Track not present in AccurateRip database Copy OK
    Track 31
    Filename F:\torrent\Seddok lErede di Satana_Lycanthropus\score\31 Lycanthropus (Seq.13).wav
    Pre-gap length 0:00:02.00
    Peak level 64.5 % Extraction speed 11.1 X Track quality 100.0 % Test CRC 5739DBBA Copy CRC 5739DBBA Track not present in AccurateRip database Copy OK
    Track 32
    Filename F:\torrent\Seddok lErede di Satana_Lycanthropus\score\32 Lycanthropus (Seq.14 - Finale).wav
    Pre-gap length 0:00:02.00
    Peak level 61.6 % Extraction speed 9.5 X Track quality 100.0 % Test CRC 59586CCF Copy CRC 59586CCF Track not present in AccurateRip database Copy OK
    None of the tracks are present in the AccurateRip database
    No errors occurred
    End of status report
    ==== Log checksum B020A58027F9A5E652A093179A728C842993012DE07552DFA58415D5B911C374 ====

    Содержание индексной карты (.CUE)

    REM GENRE SoundtrackREM DATE 2014REM DISCID F5113A20REM COMMENT "ExactAudioCopy v1.0b3"PERFORMER "Armando Trovajoli"TITLE "Seddok l' Erede di Satana - Lycanthropus"FILE "01 Seddok, L’erede Di Satana (Seq.1- Titoli).wav" WAVE TRACK 01 AUDIO TITLE "Seddok, L’erede Di Satana (Seq.1- Titoli)" PERFORMER "Armando Trovajoli" ISRC ITC001301129 FLAGS DCP INDEX 01 00:00:00 TRACK 02 AUDIO TITLE "Seddok, L’erede Di Satana (Seq.2)" PERFORMER "Armando Trovajoli" ISRC ITC001301130 FLAGS DCP INDEX 00 01:14:54FILE "02 Seddok, L’erede Di Satana (Seq.2).wav" WAVE INDEX 01 00:00:00 TRACK 03 AUDIO TITLE "Seddok, L’erede Di Satana (Seq.3)" PERFORMER "Armando Trovajoli" ISRC ITC001301131 FLAGS DCP INDEX 00 03:24:08FILE "03 Seddok, L’erede Di Satana (Seq.3).wav" WAVE INDEX 01 00:00:00 TRACK 04 AUDIO TITLE "Seddok, L’erede Di Satana (Seq.4)" PERFORMER "Armando Trovajoli" ISRC ITC001301132 FLAGS DCP INDEX 00 02:00:26FILE "04 Seddok, L’erede Di Satana (Seq.4).wav" WAVE INDEX 01 00:00:00 TRACK 05 AUDIO TITLE "Seddok, L’erede Di Satana (Seq.5)" PERFORMER "Armando Trovajoli" ISRC ITC001301133 FLAGS DCP INDEX 00 01:55:42FILE "05 Seddok, L’erede Di Satana (Seq.5).wav" WAVE INDEX 01 00:00:00 TRACK 06 AUDIO TITLE "Seddok, L’erede Di Satana (Seq.6)" PERFORMER "Armando Trovajoli" ISRC ITC001301134 FLAGS DCP INDEX 00 02:12:57FILE "06 Seddok, L’erede Di Satana (Seq.6).wav" WAVE INDEX 01 00:00:00 TRACK 07 AUDIO TITLE "Seddok, L’erede Di Satana (Seq.7)" PERFORMER "Armando Trovajoli" ISRC ITC001301135 FLAGS DCP INDEX 00 02:12:61FILE "07 Seddok, L’erede Di Satana (Seq.7).wav" WAVE INDEX 01 00:00:00 TRACK 08 AUDIO TITLE "Seddok, L’erede Di Satana (Seq.8)" PERFORMER "Armando Trovajoli" ISRC ITC001301136 FLAGS DCP INDEX 00 02:33:73FILE "08 Seddok, L’erede Di Satana (Seq.8).wav" WAVE INDEX 01 00:00:00 TRACK 09 AUDIO TITLE "Seddok, L’erede Di Satana (Seq.9)" PERFORMER "Armando Trovajoli" ISRC ITC001301137 FLAGS DCP INDEX 00 03:13:63FILE "09 Seddok, L’erede Di Satana (Seq.9).wav" WAVE INDEX 01 00:00:00 TRACK 10 AUDIO TITLE "Seddok, L’erede Di Satana (Seq.10)" PERFORMER "Armando Trovajoli" ISRC ITC001301138 FLAGS DCP INDEX 00 03:39:73FILE "10 Seddok, L’erede Di Satana (Seq.10).wav" WAVE INDEX 01 00:00:00 TRACK 11 AUDIO TITLE "Seddok, L’erede Di Satana (Seq.11)" PERFORMER "Armando Trovajoli" ISRC ITC001301139 FLAGS DCP INDEX 00 01:46:20FILE "11 Seddok, L’erede Di Satana (Seq.11).wav" WAVE INDEX 01 00:00:00 TRACK 12 AUDIO TITLE "Seddok, L’erede Di Satana (Seq.12)" PERFORMER "Armando Trovajoli" ISRC ITC001301140 FLAGS DCP INDEX 00 01:55:10FILE "12 Seddok, L’erede Di Satana (Seq.12).wav" WAVE INDEX 01 00:00:00 TRACK 13 AUDIO TITLE "Seddok, L’erede Di Satana (Seq.13)" PERFORMER "Armando Trovajoli" ISRC ITC001301141 FLAGS DCP INDEX 00 02:13:20FILE "13 Seddok, L’erede Di Satana (Seq.13).wav" WAVE INDEX 01 00:00:00 TRACK 14 AUDIO TITLE "Seddok, L’erede Di Satana (Seq.14)" PERFORMER "Armando Trovajoli" ISRC ITC001301142 FLAGS DCP INDEX 00 01:44:25FILE "14 Seddok, L’erede Di Satana (Seq.14).wav" WAVE INDEX 01 00:00:00 TRACK 15 AUDIO TITLE "Seddok, L’erede Di Satana (Seq.15)" PERFORMER "Armando Trovajoli" ISRC ITC001301143 FLAGS DCP INDEX 00 01:41:61FILE "15 Seddok, L’erede Di Satana (Seq.15).wav" WAVE INDEX 01 00:00:00 TRACK 16 AUDIO TITLE "Seddok, L’erede Di Satana (Seq.16)" PERFORMER "Armando Trovajoli" ISRC ITC001301144 FLAGS DCP INDEX 00 02:38:61FILE "16 Seddok, L’erede Di Satana (Seq.16).wav" WAVE INDEX 01 00:00:00 TRACK 17 AUDIO TITLE "Seddok, L’erede Di Satana (Seq.17)" PERFORMER "Armando Trovajoli" ISRC ITC001301145 FLAGS DCP INDEX 00 02:28:25FILE "17 Seddok, L’erede Di Satana (Seq.17).wav" WAVE INDEX 01 00:00:00 TRACK 18 AUDIO TITLE "Seddok, L’erede Di Satana (Seq.18 - Finale)" PERFORMER "Armando Trovajoli" ISRC ITC001301146 FLAGS DCP INDEX 00 03:27:42FILE "18 Seddok, L’erede Di Satana (Seq.18 - Finale).wav" WAVE INDEX 01 00:00:00 TRACK 19 AUDIO TITLE "Lycanthropus (Seq.1 - Titoli)" PERFORMER "Armando Trovajoli" ISRC ITC001301147 FLAGS DCP INDEX 00 02:07:59FILE "19 Lycanthropus (Seq.1 - Titoli).wav" WAVE INDEX 01 00:00:00 TRACK 20 AUDIO TITLE "Lycanthropus (Seq.2)" PERFORMER "Armando Trovajoli" ISRC ITC001301148 FLAGS DCP INDEX 00 01:44:50FILE "20 Lycanthropus (Seq.2).wav" WAVE INDEX 01 00:00:00 TRACK 21 AUDIO TITLE "Lycanthropus (Seq.3)" PERFORMER "Armando Trovajoli" ISRC ITC001301149 FLAGS DCP INDEX 00 01:20:49FILE "21 Lycanthropus (Seq.3).wav" WAVE INDEX 01 00:00:00 TRACK 22 AUDIO TITLE "Lycanthropus (Seq.4)" PERFORMER "Armando Trovajoli" ISRC ITC001301150 FLAGS DCP INDEX 00 02:04:18FILE "22 Lycanthropus (Seq.4).wav" WAVE INDEX 01 00:00:00 TRACK 23 AUDIO TITLE "Lycanthropus (Seq.5)" PERFORMER "Armando Trovajoli" ISRC ITC001301151 FLAGS DCP INDEX 00 01:12:46FILE "23 Lycanthropus (Seq.5).wav" WAVE INDEX 01 00:00:00 TRACK 24 AUDIO TITLE "Lycanthropus (Seq.6)" PERFORMER "Armando Trovajoli" ISRC ITC001301152 FLAGS DCP INDEX 00 01:22:46FILE "24 Lycanthropus (Seq.6).wav" WAVE INDEX 01 00:00:00 TRACK 25 AUDIO TITLE "Lycanthropus (Seq.7)" PERFORMER "Armando Trovajoli" ISRC ITC001301153 FLAGS DCP INDEX 00 02:34:13FILE "25 Lycanthropus (Seq.7).wav" WAVE INDEX 01 00:00:00 TRACK 26 AUDIO TITLE "Lycanthropus (Seq.8)" PERFORMER "Armando Trovajoli" ISRC ITC001301154 FLAGS DCP INDEX 00 02:23:53FILE "26 Lycanthropus (Seq.8).wav" WAVE INDEX 01 00:00:00 TRACK 27 AUDIO TITLE "Lycanthropus (Seq.9)" PERFORMER "Armando Trovajoli" ISRC ITC001301155 FLAGS DCP INDEX 00 02:37:01FILE "27 Lycanthropus (Seq.9).wav" WAVE INDEX 01 00:00:00 TRACK 28 AUDIO TITLE "Lycanthropus (Seq.10)" PERFORMER "Armando Trovajoli" ISRC ITC001301156 FLAGS DCP INDEX 00 02:03:65FILE "28 Lycanthropus (Seq.10).wav" WAVE INDEX 01 00:00:00 TRACK 29 AUDIO TITLE "Lycanthropus (Seq.11)" PERFORMER "Armando Trovajoli" ISRC ITC001301157 FLAGS DCP INDEX 00 02:45:47FILE "29 Lycanthropus (Seq.11).wav" WAVE INDEX 01 00:00:00 TRACK 30 AUDIO TITLE "Lycanthropus (Seq.12)" PERFORMER "Armando Trovajoli" ISRC ITC001301158 FLAGS DCP INDEX 00 01:28:49FILE "30 Lycanthropus (Seq.12).wav" WAVE INDEX 01 00:00:00 TRACK 31 AUDIO TITLE "Lycanthropus (Seq.13)" PERFORMER "Armando Trovajoli" ISRC ITC001301159 FLAGS DCP INDEX 00 03:25:29FILE "31 Lycanthropus (Seq.13).wav" WAVE INDEX 01 00:00:00 TRACK 32 AUDIO TITLE "Lycanthropus (Seq.14 - Finale)" PERFORMER "Armando Trovajoli" ISRC ITC001301160 FLAGS DCP INDEX 00 03:10:26FILE "32 Lycanthropus (Seq.14 - Finale).wav" WAVE INDEX 01 00:00:00

    Лог проверки качества

    AUDIOCHECKER v2.0 beta (build 457) - by Dester - opdester@freemail.hu~~~~~~~~~~~~~~~~~~~~~~~~~~~~~~~~~~-=== НЕ РЕДАКТИРУЙТЕ ЭТОТ ФАЙЛ! ===-
    Путь: ...\score
    01 -=- 01 Seddok, L’erede Di Satana (Seq.1- Titoli).flac -=- CDDA (100%)02 -=- 02 Seddok, L’erede Di Satana (Seq.2).flac -=- CDDA (100%)03 -=- 03 Seddok, L’erede Di Satana (Seq.3).flac -=- CDDA (100%)04 -=- 04 Seddok, L’erede Di Satana (Seq.4).flac -=- CDDA (100%)05 -=- 05 Seddok, L’erede Di Satana (Seq.5).flac -=- CDDA (100%)06 -=- 06 Seddok, L’erede Di Satana (Seq.6).flac -=- CDDA (100%)07 -=- 07 Seddok, L’erede Di Satana (Seq.7).flac -=- CDDA (100%)08 -=- 08 Seddok, L’erede Di Satana (Seq.8).flac -=- CDDA (100%)09 -=- 09 Seddok, L’erede Di Satana (Seq.9).flac -=- CDDA (100%)10 -=- 10 Seddok, L’erede Di Satana (Seq.10).flac -=- CDDA (100%)11 -=- 11 Seddok, L’erede Di Satana (Seq.11).flac -=- CDDA (100%)12 -=- 12 Seddok, L’erede Di Satana (Seq.12).flac -=- CDDA (100%)13 -=- 13 Seddok, L’erede Di Satana (Seq.13).flac -=- CDDA (100%)14 -=- 14 Seddok, L’erede Di Satana (Seq.14).flac -=- CDDA (99%)15 -=- 15 Seddok, L’erede Di Satana (Seq.15).flac -=- CDDA (100%)16 -=- 16 Seddok, L’erede Di Satana (Seq.16).flac -=- CDDA (100%)17 -=- 17 Seddok, L’erede Di Satana (Seq.17).flac -=- CDDA (100%)18 -=- 18 Seddok, L’erede Di Satana (Seq.18 - Finale).flac -=- CDDA (100%)19 -=- 19 Lycanthropus (Seq.1 - Titoli).flac -=- CDDA (100%)20 -=- 20 Lycanthropus (Seq.2).flac -=- CDDA (100%)21 -=- 21 Lycanthropus (Seq.3).flac -=- CDDA (100%)22 -=- 22 Lycanthropus (Seq.4).flac -=- CDDA (100%)23 -=- 23 Lycanthropus (Seq.5).flac -=- CDDA (100%)24 -=- 24 Lycanthropus (Seq.6).flac -=- CDDA (100%)25 -=- 25 Lycanthropus (Seq.7).flac -=- CDDA (100%)26 -=- 26 Lycanthropus (Seq.8).flac -=- CDDA (100%)27 -=- 27 Lycanthropus (Seq.9).flac -=- CDDA (100%)28 -=- 28 Lycanthropus (Seq.10).flac -=- CDDA (99%)29 -=- 29 Lycanthropus (Seq.11).flac -=- CDDA (100%)30 -=- 30 Lycanthropus (Seq.12).flac -=- CDDA (100%)31 -=- 31 Lycanthropus (Seq.13).flac -=- CDDA (100%)32 -=- 32 Lycanthropus (Seq.14 - Finale).flac -=- CDDA (100%)
    Сводка 99,94% CDDA
    268003860
    Скачать .torrent

    Скачать торрент-файл бесплатно и на максимальной скорости!

    Как скачивать? · Что такое торрент? · Рейтинг и ограничения

    !ВНИМАНИЕ!
    Сайт не распространяет и не хранит электронные версии произведений, а занимается лишь лишь предоставлением доступа к создаваемому пользователями каталогу ссылок на торрент-файлы, которые содержат только списки хеш-сумм, убедительная просьба с жалобами обращаться напрямую к пользователю. Файлы для обмена на трекере предоставлены пользователями сайта, и администрация не несёт ответственности за их содержание. Просьба не заливать файлы, защищенные авторскими правами, а также файлы нелегального содержания!

    [Профиль] [ЛС]
    Показать сообщения:    
    Ответить на тему

    Текущее время: Сегодня, в 18:15

    Часовой пояс: GMT + 2



    Вы не можете начинать темы
    Вы не можете отвечать на сообщения
    Вы не можете редактировать свои сообщения
    Вы не можете удалять свои сообщения
    Вы не можете голосовать в опросах
    Вы не можете прикреплять файлы к сообщениям
    Вы не можете скачивать файлы