BitTorrentTracker PerecTracker.org
BitTorrentTracker PerecTracker.org
    
Регистрация  ·  Вход
 
 · 
Забыли пароль?

  • Большой Дружелюбный Великан / The BFG / The Big Friendly Giant (Брайан Косгров / Brian Cosgrove) [1989, Великобритания, мультфильм, фэнтези, приключения, BDRip] AVO (Дольский)

    Ответить на тему
     
    Автор Сообщение

    Flirldrerve

    Создавать темы 29-Июл-2016 19:15

           

    [Цитировать]

    Большой и дружелюбный великан / The BFG
    Страна: Великобритания
    Жанр: мультфильм, фэнтези, приключения
    Год выпуска: 1989
    Продолжительность: 01:31:19
    Перевод: Авторский (одноголосый закадровый) - Дольский
    Cубтитры: нет
    Оригинальная аудиодорожка: нет-Режиссер: Брайан Косгров / Brian Cosgrove-В ролях: Дэвид Джейсон, Аманда Рут, Анджела Торн, Бэллард Беркли, Майкл Ноулз, Дон Хендерсон, Молли Сугден, Фрэнк Торнтон, , Джимми Хибберт-Описание:
    Одной лунной ночью, очаровательный гигант похищает маленькую Софи прямо из кровати сиротского приюта миссис Клонкерс и уносит ее прочь к волшебным, захватывающим и забавным приключениям.
    Воодушевленные детским бестселлером Роальда Даля (Чарли и шоколадная фабрика, Джеймс и гигантский персик), победители множества конкурсов Cosgrove Hall Studio и создатели сериалов «Опасный мышонок» и «Ветер в ивах» подарили жизнь этой классической анимационной музыкальной сказке.
    В отличие от Bloodbottler (Бутылка крови), Fleshlumpeater (Пожиратель плоти) и Bonecruncher (Костегрыз), Большой Дружелюбный Великан – добрый гигант, который задувает сладкие сны в окна детских спален и посылает детям добрые сны. Когда Софи узнает, что чудовищная команда злодеев направляется в Англию, чтобы сожрать невинных мальчиков и девочек, она начинает готовиться к тому, чтобы остановить их раз и навсегда при помощи своего нового довольно крупного друга.
    Как отметил автор Роальд Даль, БДВ – это очень нежная и сказочная история в которой рассказывается о удивительной дружбе между маленькой девочкой и великана с большим сердцем.-Качество видео: BDRip
    Формат видео: AVI
    Видео: 720x400 (1.80:1), 23.976 fps, XviD build 73 ~2091 kbps avg, 0.30 bit/pixel
    Аудио: Russian: 48 kHz, AC3, 1/0 (L,R) ch, ~192 kbps avg |А. Дольский|
    Скачать сэмпл

    MI

    Format                      : AVI
    Format/Info                 : Audio Video Interleave
    File size                   : 1.46 GiB
    Duration                    : 1h 31mn
    Overall bit rate            : 2 293 Kbps
    Writing application         : VirtualDubMod 1.5.10.3 | www.virtualdub-fr.org || (build 2550/release)
    Writing library             : VirtualDubMod build 2550/release
    Video
    ID                          : 0
    Format                      : MPEG-4 Visual
    Format profile              : Advanced Simple@L5
    Format settings, BVOP       : 1
    Format settings, QPel       : No
    Format settings, GMC        : No warppoints
    Format settings, Matrix     : Custom
    Codec ID                    : XVID
    Codec ID/Hint               : XviD
    Duration                    : 1h 31mn
    Bit rate                    : 2 092 Kbps
    Width                       : 720 pixels
    Height                      : 400 pixels
    Display aspect ratio        : 16:9
    Frame rate                  : 23.976 (23976/1000) fps
    Color space                 : YUV
    Chroma subsampling          : 4:2:0
    Bit depth                   : 8 bits
    Scan type                   : Progressive
    Compression mode            : Lossy
    Bits/(Pixel*Frame)          : 0.303
    Stream size                 : 1.33 GiB (91%)
    Writing library             : XviD 73
    Audio
    ID                          : 1
    Format                      : AC-3
    Format/Info                 : Audio Coding 3
    Mode extension              : CM (complete main)
    Format settings, Endianness : Big
    Codec ID                    : 2000
    Duration                    : 1h 31mn
    Bit rate mode               : Constant
    Bit rate                    : 192 Kbps
    Channel(s)                  : 1 channel
    Channel positions           : Front: C
    Sampling rate               : 48.0 KHz
    Frame rate                  : 31.250 fps (1536 spf)
    Compression mode            : Lossy
    Stream size                 : 125 MiB (8%)
    Alignment                   : Split accross interleaves
    Interleave, duration        : 42 ms (1.00 video frame)
    Interleave, preload duratio : 500 ms

    Скриншоты

    Скачать .torrent

    Скачать торрент-файл бесплатно и на максимальной скорости!

    Как скачивать? · Что такое торрент? · Рейтинг и ограничения

    !ВНИМАНИЕ!
    Сайт не распространяет и не хранит электронные версии произведений, а занимается лишь лишь предоставлением доступа к создаваемому пользователями каталогу ссылок на торрент-файлы, которые содержат только списки хеш-сумм, убедительная просьба с жалобами обращаться напрямую к пользователю. Файлы для обмена на трекере предоставлены пользователями сайта, и администрация не несёт ответственности за их содержание. Просьба не заливать файлы, защищенные авторскими правами, а также файлы нелегального содержания!


    _________________
    [Профиль] [ЛС]
    Показать сообщения:    
    Ответить на тему

    Текущее время: Сегодня, в 11:54

    Часовой пояс: GMT + 2



    Вы не можете начинать темы
    Вы не можете отвечать на сообщения
    Вы не можете редактировать свои сообщения
    Вы не можете удалять свои сообщения
    Вы не можете голосовать в опросах
    Вы не можете прикреплять файлы к сообщениям
    Вы не можете скачивать файлы