BitTorrentTracker PerecTracker.org
BitTorrentTracker PerecTracker.org
    
Регистрация  ·  Вход
 
 · 
Забыли пароль?

  • Бионикл 2: Легенда Метру Нуи / Bionicle 2: Legends of Metru Nui (Дэвид Молина / David Molina, Терри Шекспир / Terry Shakespeare) [2004, США, Анимация, DVDRip] AVO Сергей Визгунов + Original Eng

    Ответить на тему
     
    Автор Сообщение

    Flirldrerve

    Создавать темы 29-Июл-2016 15:03

           

    [Цитировать]

    Бионикл 2: Легенда Метру Нуи / Bionicle 2: Legends of Metru Nui
    «Каждая легенда имеет свое начало»
    Страна: США
    Жанр: Анимация
    Продолжительность: 01:12:08
    Год выпуска: 2004
    Перевод: Авторский (одноголосый закадровый) Сергей Визгунов
    Русские субтитры: нет
    Оригинальная аудиодорожка: английский
    Режиссёр: Дэвид Молина / David Molina, Терри Шекспир / Terry Shakespeare
    Роли озвучивали: Кристофер Газе, Майкл Добсон, Пол Добсон, Табита Сен-Жермен, Брайан Драммонд, Тревор Дивэлл, Алессандро Джулиани, Джерард Планкет, Ли Токар
    Описание: Когда таинственные темные силы начинают угрожать великолепному городу Метру Нуи, шести воинам придется быстро овладеть полученной силой и доказать, что они достойны быть под предводительством знаменитого вождя и спасти жителей города!
    Доп. информация: Дорожка с С. Визгуновым синхронизирована и наложена ale_x2008 при помощи Sony Vegas и VirtualDubMod.
    За оцифрованную с VHS дорожку благодарим - d_rocker

    Релиз
    Семпл: https://yadi.sk/i/6wqpZyYStKEmT
    Качество: DVDRip
    Формат: AVI
    Видео: XviD build 65, 704x400 (1.76:1), 25.00 fps, 2055 kbps avg, 0.29 bit/pixel
    Аудио: AC3 Dolby Digital, 48000Hz, 2/0 (L,R) ch (mono), 192.00 kbps avg [AVO]
    Аудио 2: AC3 Dolby Digital, 48000Hz, 3/2 (L,C,R,l,r) + LFE ch, 448.00 kbps avg [Eng]
    Субтитры: отсутствуют

    Подробные технические данные

    Бионикл 2 - Легенда Метру Нуи - Bionicle 2 - Legends of Metru Nui [by ale_x2008].aviFormat : AVIFormat/Info : Audio Video InterleaveFile size : 1.37 GiBDuration : 1h 12mnOverall bit rate : 2 711 KbpsMovie name : Бионикл 2 - Легенда Метру Нуи - Bionicle 2 - Legends of Metru Nui [by ale_x2008]Director : by ale_x2008Writing application : VirtualDubMod 1.5.10.3 (build 2550/release)Copyright : Edich2Comment : RuTracker.org
    VideoID : 0Format : MPEG-4 VisualFormat profile : Advanced Simple@L5Format settings, BVOP : 1Format settings, QPel : NoFormat settings, GMC : No warppointsFormat settings, Matrix : CustomCodec ID : XVIDCodec ID/Hint : XviDDuration : 1h 12mnBit rate : 2 056 KbpsWidth : 704 pixelsHeight : 400 pixelsDisplay aspect ratio : 16:9Frame rate : 25.000 fpsColor space : YUVChroma subsampling : 4:2:0Bit depth : 8 bitsScan type : ProgressiveCompression mode : LossyBits/(Pixel*Frame) : 0.292Stream size : 1.04 GiB (76%)Writing library : XviD 65
    Audio #1ID : 1Format : AC-3Format/Info : Audio Coding 3Mode extension : CM (complete main)Format settings, Endianness : BigCodec ID : 2000Duration : 1h 12mnBit rate mode : ConstantBit rate : 192 KbpsChannel(s) : 2 channelsChannel positions : Front: L RSampling rate : 48.0 KHzFrame rate : 31.250 fps (1536 spf)Compression mode : LossyStream size : 99.0 MiB (7%)Alignment : Split accross interleavesInterleave, duration : 40 ms (1.00 video frame)Interleave, preload duratio : 500 ms
    Audio #2ID : 2Format : AC-3Format/Info : Audio Coding 3Mode extension : CM (complete main)Format settings, Endianness : BigCodec ID : 2000Duration : 1h 12mnBit rate mode : ConstantBit rate : 448 KbpsChannel(s) : 6 channelsChannel positions : Front: L C R, Side: L R, LFESampling rate : 48.0 KHzFrame rate : 31.250 fps (1536 spf)Compression mode : LossyStream size : 231 MiB (17%)Alignment : Split accross interleavesInterleave, duration : 40 ms (1.00 video frame)Interleave, preload duratio : 500 ms

    Скриншоты

    Скачать .torrent

    Скачать торрент-файл бесплатно и на максимальной скорости!

    Как скачивать? · Что такое торрент? · Рейтинг и ограничения

    !ВНИМАНИЕ!
    Сайт не распространяет и не хранит электронные версии произведений, а занимается лишь лишь предоставлением доступа к создаваемому пользователями каталогу ссылок на торрент-файлы, которые содержат только списки хеш-сумм, убедительная просьба с жалобами обращаться напрямую к пользователю. Файлы для обмена на трекере предоставлены пользователями сайта, и администрация не несёт ответственности за их содержание. Просьба не заливать файлы, защищенные авторскими правами, а также файлы нелегального содержания!


    _________________
    [Профиль] [ЛС]
    Показать сообщения:    
    Ответить на тему

    Текущее время: Сегодня, в 18:32

    Часовой пояс: GMT + 2



    Вы не можете начинать темы
    Вы не можете отвечать на сообщения
    Вы не можете редактировать свои сообщения
    Вы не можете удалять свои сообщения
    Вы не можете голосовать в опросах
    Вы не можете прикреплять файлы к сообщениям
    Вы не можете скачивать файлы