BitTorrentTracker PerecTracker.org
BitTorrentTracker PerecTracker.org
    
Регистрация  ·  Вход
 
 · 
Забыли пароль?

  • Мыс страха / Cape Fear (Мартин Скорсезе / Martin Scorsese) [1991, США, триллер, криминал, BDRip HD (720p)] DUB, MVO, DVO, AVO, Original + SUB (rus, eng)

    Ответить на тему
     
    Автор Сообщение

    rechyn

    Создавать темы 29-Июл-2016 15:03

           

    [Цитировать]

    Мыс страха / Cape Fear
    "Sam Bowden has always provided for his family's future. But the past is coming back to haunt them"
    7.376 / 10
    -Год выпуска: 1991
    Страна: США
    Жанр: триллер, криминал
    Продолжительность: 128 мин. (02:07:45)
    Перевод: Профессиональный дублированный перевод, многоголосый закадровый перевод, двухголосый закадровый перевод и одноголосый закадровый авторский перевод
    Оригинальная аудиодорожка: Есть
    Cубтитры: Русские форсированные, русские полные и английские полные
    Режиссёр: Мартин Скорсезе
    Сценарий: Джеймс Р. Уэбб, Уэсли Стрик, Джон Д. МакДоналд
    Продюсер: Барбара Де Фина, Кэтлин Кеннеди, Фрэнк Маршалл
    Оператор: Фредди Фрэнсис
    Художник: Генри Бамстед, Джек Дж. Тейлор мл., Рита Райек
    Монтаж: Тельма Шунмейкер
    В ролях: Роберт Де Ниро, Ник Нолти, Джессика Лэнг, Джульетт Льюис, Джо Дон Бейкер, Роберт Митчем, Грегори Пек, Мартин Болсам, Иллиана Даглас, Фред Долтон Томпсон
    Роли дублировали: Никита Прозоровский, Валерий Сторожик, Ольга Плетнёва, Вероника Саркисова, Михаил Георгиу
    Бюджет: $35 000 000
    Сборы в США: $79 091 969
    Сборы в мире: + $103 200 000 = $182 291 969
    Мировая премьера: 15 ноября 1991
    Релиз на Blu-Ray: 10 ноября 2011, Двадцатый Век Фокс СНГ
    Релиз на DVD: 5 декабря 2006, Юниверсал Пикчерс Рус
    Описание: Матерый уголовник Макс Кейди выходит из тюрьмы, отсидев длительный срок за изнасилование. Его сердце переполнено злобой и ненавистью. Тогда, четырнадцать лет назад, его адвокатом на суде был Сэм Боуден. У него в руках была важная информация, которая, возможно, могла оправдать Макса.
    Но Сэм скрыл ее, и его клиент получил суровый приговор. Макс ничего не забыл, все эти годы он вынашивал план мести. И теперь намерен отыскать Боудена и преподать хороший урок ему, его жене и 15-летней дочери.-Качество исходника: Blu-Ray 1080p
    Качество: BDRip
    Тип: 720p
    Контейнер: m4v
    Видео: 1280х544 at 23.976 fps, MPEG-4 AVC, ~5000 kbps avg
    Аудио#1: Russian: 48 kHz, ААС, 2/0 (L,R), ~160.00 kbps avg |Дубляж, Blu-Ray CEE|
    Аудио#2: Russian: 48 kHz, ААС, 2/0 (L,R), ~160.00 kbps avg |Многоголосый закадровый, ОРТ (R5)|
    Аудио#3: Russian: 48 kHz, ААС, 2/0 (L,R), ~160.00 kbps avg |Двухголосый закадровый, Петр Гланц и Инна Королева|
    Аудио#4: Russian: 48 kHz, ААС, 2/0 (L,R), ~160.00 kbps avg |Одноголосый закадровый, А. Гаврилов|
    Аудио#5: English: 48 kHz, ААС, 2/0 (L,R), ~160.00 kbps avg
    Аудио#6: Russian: 48 kHz, AC3, 3/2 (L,C,R,l,r) + LFE ch, ~640.00 kbps avg |Дубляж, Blu-Ray CEE|
    Аудио#7: Russian: 48 kHz, AC3, 3/2 (L,C,R,l,r) + LFE ch, ~640.00 kbps avg |Двухголосый закадровый, Петр Гланц и Инна Королева|
    Аудио#8: Russian: 48 kHz, AC3, 3/2 (L,C,R,l,r) + LFE ch, ~640.00 kbps avg |Одноголосый закадровый, А. Гаврилов|
    Аудио#9: English: 48 kHz, AC3, 3/2 (L,C,R,l,r) + LFE ch, ~640.00 kbps avg
    Субтитры №1: Russian: |Форсированные|
    Субтитры №2: Russian: |Полные|
    Субтитры №3: English: |Полные, Blu-Ray|
    Субтитры №4: English: |Полные, DVD|-

    Знаете ли Вы, что...

    • На роль Даниэль рассматривались Дрю Бэрримор, Сара Джессика Паркер, Николь Эггерт. Также роль предлагалась Дженнифер Коннелли, Алисе Милано, Вайноне Райдер, Тиффани Тиссен и Кристине Эпплгейт, но они отказались.
    • На пробах на роль Даниэль Боуден присутствовала тогда еще неизвестная Риз Уизерспун.
    • Это последнее появление Грегори Пека в большом кино. Дальше были еще две работы на телевидении.
    • Фильм хотел снимать Стивен Спилберг, но в итоге выступил лишь как исполнительный продюсер.
    • Скорсезе не очень хотелось снимать Мыс страха, поскольку ему не нравились слишком приторные и правильные отношения в семье адвоката. Но Де Ниро хотел сыграть Кэйди и убедил режиссера взяться за фильм.
    • В ремейке Скорсезе в эпизодах появились Роберт Митчум и Грегори Пек. В оригинальной ленте Митчем играл Кэйди, а Пек — Сэма Боудена.
    • Полной аллюзии на старый фильм могло бы не случиться, так как вместо Митчума должен был играть Джордж К. Скотт. Тот выбыл из фильма через несколько дней после начала съемок по состоянию здоровья.
    • В фильме также в роли судьи появляется Мартин Болсам, у которого в старом фильме была одна из ролей второго плана.
    • Роберт Де Ниро заплатил дантисту $5 тысяч, чтобы тот придал его зубам нужный вид для роли отмотавшего 14-летний срок зека. И ему пришлось заплатить еще $20 тысяч, чтобы после съемок привести свои зубы в норму.
    • Музыку к фильму написал композитор Элмер Бернстайн, однако в некоторых эпизодах Скорсезе использовал партитуру Бернарда Херрманна из старого Мыса страха. Также новый сценарий Уэсли Стрика базируется на оригинальном сценарии Джеймса Р. Уэбба. Между прочим, Скорсезе впервые в своей карьере допустил на съемки сценариста.
    • Татуировки Макса Кэйди были выполнены специальными красками, которые вылиняли через несколько месяцев.
    • Де Ниро прочел исследования о сексуальных преступлениях и сам предложил сцену, в которой Кэйди кусает свою жертву.
    • Де Ниро провел несколько месяцев в спортивном зале, чтобы набрать необходимую для роли мышечную массу. Напротив, физически развитому Нику Нолти пришлось сидеть на строжайшей диете, чтобы он не выглядел в кадре сильнее, чем Де Ниро.
    • Сцена в школе между Кэйди и Даниэль была полностью сымпровизирована Де Нирои Джульетт Льюис. Кстати, в сценарии это была сцена погони, но Скорсезе хотел сделать ее как сцену совращения.
    • На роль Сэма Боудена Скорсезе хотел заполучить Харрисона Форда. Он даже просил Де Ниро позвонить Форду и убедить его сыграть в фильме.
    • Роберт Редфорд также мог сыграть адвоката Боудена.
    • Фильм, который показывают в кинотеатре — «Трудный ребёнок» (1990).
    • В сцене неудавшейся расправы над Максом Кейди приводится цитата из произведений немецкого поэта и философа XVII века Силезиуса. Расшвыряв нанятых адвокатом нападавших, Макс Кейди с пафосом восклицает: «Я так же велик, как Господь! Господь так же ничтожен, как я!»

    из книги «3500 кинорецензий»


    Триллер (Сергей Кудрявцев 8/10)
    В 1962 году вышел триллер Джона Ли Томпсона «Мыс страха» (по роману Джона МакДоналда «Палачи»), рассказавший о подонке Максе Кейди, который, отсидев восемь лет за попытку изнасилования женщины ночью на автостоянке, решил после выхода из тюрьмы изощрённо отомстить случайному свидетелю, адвокату Сэму Боудену и его семье — жене Ли и шестнадцатилетней дочери Даниель. Хотя картина не пользовалась зрительской популярностью, она заслужила хорошие отзывы критиков. Когда «Эмблин Энтертейнмент», фирма Стивена Спилберга, предложила Мартину Скорсезе сделать римейк, то он долго отказывался, ссылаясь на неприятие по отношению к данному сюжету, а особенно — к «слишком стереотипной и конфетно счастливой» семье адвоката.
    Однако Роберт Де Ниро, любимый актёр и своеобразный «альтер-эго» этого режиссёра, прежде сотрудничавший с ним на шести фильмах, очень хотел сыграть роль негодяя Кейди. И можно сказать, что лента Скорсезе в немалой степени выигрывает благодаря присутствию Де Ниро, который перевоплотился в подлинное «исчадие ада», некое дьявольское создание, персонифицированную силу Зла. Этот всеми признанный исполнитель уже представал на экране в облике замаскированного Люцифера в мистическом триллере «Сердце Ангела» Алана Паркера. Но в «Мысе страха» он безжалостно лишил Кейди таинственного, мрачно-романтического ореола, развенчал фальшивую демагогию и неуёмные претензии данного персонажа на роль самого Провидения, вершащего Страшный Суд, наконец, подчёркнул невольную связь, которая существует с другими ролями, прежде всего — в рамках сквозной актёрской темы, развитой не без влияния Мартина Скорсезе.
    Критики осуждали постановщика за явную коммерческую ориентацию — действительно, «Мыс страха» стал самым успешным по посещаемости в кинобиографии Скорсезе и оставался таковым вплоть до появления «Отступников» в 2006 году. А также они не принимали несомненную «фрейдизацию» сценария (сам режиссёр не без насмешки употреблял термин «католицизация» — ради идеи искушения и наказания греха повествование было дополнено массой скандально-провокационных, смущающих ханжеские представления перверсивных деталей из прошлого и настоящего героев). Небеспорочные жертвы, которые притягивают к себе жаждущего не столько мести, сколько безграничной власти над людьми отъявленного подлеца с комплексом вселенского мессии, могут показаться уродливыми натурами, заслуживающими иной — Божьей — кары.
    Самозванный же судия, который возомнил себя демиургом всех религий и политических утопий (портреты и обстановка в его тюремной камере, всевозможные наколки на теле да и речь «уголовного философа», много чего начитавшегося за 14 лет срока, свидетельствуют о мании величия садиста местного масштаба), вообще способен вызвать разные чувства — от брезгливости до… ощущения скрытой пародийности характера. В зависимости от этого реакция на данную картину двояка, но в каждом случае проще всего обвинить Скорсезе в издевательстве над зрителями, которые всё-таки проявили большой интерес к новому варианту «Мыса страха» — и отнюдь не из-за одного стремления к «запретному плоду», подобно юной Даниель, неудержимо влекомой к опасным страстям.
    Вглядевшись внимательнее в суть изменений и в авторскую трактовку, можно увидеть своеобразную перекличку «Мыса страха» с «Таксистом», безусловно, признанным большинством критиков. Шофер Трэвис, который был одержим благородным порывом очищения мира от скверны, также пытался, помимо по-особому понятых христианских заповедей, следовать заветам дзэн-буддизма, а в практическом плане — самурайскому кодексу бусидо. Ему удалось спасти двенадцатилетнюю девочку от занятий проституцией, перестреляв ради этого несколько сутенёров — но в результате таксист после выхода из клиники вновь вернулся в никуда не исчезнувший ад, в который даже не надо «мостить дорогу».
    Персонаж Де Ниро в «Мысе страха» представляет уже оборотную, точнее -оборотническую сторону этого типа, у которого благие намерения превратились в болезненное желание самоутверждения, в жажду жестокого диктата, подавления других из-за собственной несостоятельности. Мечта об абсолютной власти, о карающей деснице Господа делает его жалким заложником своих же униженных инстинктов, рабом низменных помыслов, зверем буйных рефлексов. Человек вырождается в нелюдя, дьявольское берёт верх над разумом. И мыс страха — как узкая грань между двумя мирами, разными сущностями одной персоны. Так легко её переступить — и посчитать себя вправе судить чужие грехи. Ведь благополучный адвокат, по версии Скорсезе, тоже причастен к происшедшему, хотя бы потому, что на суде утаил ряд подробностей о прежней жертве Кейди, а при новой встрече с ним сразу пожелал откупиться, тем самым косвенно признав и собственную вину.
    1992

    -

    iTunes Meta Tags for country ru

    Name: Мыс Страха (1991)
    Artist: Martin Scorsese
    Genre: Drama
    Release Date: 1991-11-15T08:00:00Z
    Description: Матерый уголовник Макс Кейди выходит из тюрьмы, отсидев длительный срок за изнасилование. Его сердце переполнено злобой и ненавистью. Тогда, четырнадцать лет назад, его адвокатом на суде был Сэм Боуден. У него в руках была важная информация, которая, возможно, могла оправдать Макса...
    Long Description: Матерый уголовник Макс Кейди выходит из тюрьмы, отсидев длительный срок за изнасилование. Его сердце переполнено злобой и ненавистью. Тогда, четырнадцать лет назад, его адвокатом на суде был Сэм Боуден. У него в руках была важная информация, которая, возможно, могла оправдать Макса.
    Но Сэм скрыл ее, и его клиент получил суровый приговор. Макс ничего не забыл, все эти годы он вынашивал план мести. И теперь намерен отыскать Боудена и преподать хороший урок ему, его жене и 15-летней дочери.
    Rating: 18+
    Cast: Роберт Де Ниро, Ник Нолти, Джессика Лэнг, Джульетт Льюис, Джо Дон Бейкер, Роберт Митчем, Грегори Пек, Мартин Болсам, Иллиана Даглас, Фред Долтон Томпсон
    Director: Мартин Скорсезе
    Producers: Барбара Де Фина, Кэтлин Кеннеди, Фрэнк Маршалл
    Screenwriters: Джеймс Р. Уэбб, Уэсли Стрик, Джон Д. МакДоналд
    Copyright: © 1991 Universal Studios. All Rights Reserved.
    contentID: 650496898
    XID: Apple:vendor_id:1991-7101
    Sort Name: Мыс Страха (1991)

    iTunes Meta Tags for country us

    Name: Cape Fear (1991)
    Artist: Martin Scorsese
    Genre: Drama
    Release Date: 1991-11-15T08:00:00Z
    Description: Матерый уголовник Макс Кейди выходит из тюрьмы, отсидев длительный срок за изнасилование. Его сердце переполнено злобой и ненавистью. Тогда, четырнадцать лет назад, его адвокатом на суде был Сэм Боуден. У него в руках была важная информация, которая, возможно, могла оправдать Макса...
    Long Description: Матерый уголовник Макс Кейди выходит из тюрьмы, отсидев длительный срок за изнасилование. Его сердце переполнено злобой и ненавистью. Тогда, четырнадцать лет назад, его адвокатом на суде был Сэм Боуден. У него в руках была важная информация, которая, возможно, могла оправдать Макса.
    Но Сэм скрыл ее, и его клиент получил суровый приговор. Макс ничего не забыл, все эти годы он вынашивал план мести. И теперь намерен отыскать Боудена и преподать хороший урок ему, его жене и 15-летней дочери.
    Rating: R
    Rating Annotation: Rated R For strong violence and language.
    Studio: Universal Pictures
    Cast: Роберт Де Ниро, Ник Нолти, Джессика Лэнг, Джульетт Льюис, Джо Дон Бейкер, Роберт Митчем, Грегори Пек, Мартин Болсам, Иллиана Даглас, Фред Долтон Томпсон
    Director: Мартин Скорсезе
    Producers: Барбара Де Фина, Кэтлин Кеннеди, Фрэнк Маршалл
    Screenwriters: Джеймс Р. Уэбб, Уэсли Стрик, Джон Д. МакДоналд
    Copyright: © 1991 Universal Studios. All Rights Reserved.
    contentID: 470532897
    XID: Apple:vendor_id:1991-7101
    Sort Name: Cape Fear (1991)

    MediaInfo 720p Release

    Общее
    Полное имя                               : Cape Fear (1991) (HD).m4v
    Формат                                   : MPEG-4
    Идентификатор кодека                     : M4V  (M4V /M4A /mp42/isom)
    Размер файла                             : 7,45 Гбайт
    Продолжительность                        : 2 ч. 7 м.
    Режим общего битрейта                    : Переменный
    Общий поток                              : 8346 Кбит/сек
    Название фильма                          : Cape Fear (1991)
    Исполнитель                              : Martin Scorsese
    Режиссёр                                 : Мартин Скорсезе
    Исполнитель                              : Роберт Де Ниро / Ник Нолти / Джессика Лэнг / Джульетт Льюис / Джо Дон Бейкер / Роберт Митчем / Грегори Пек / Мартин Болсам / Иллиана Даглас / Фред Долтон Томпсон
    Сценарист                                : Джеймс Р. Уэбб / Уэсли Стрик / Джон Д. МакДоналд
    Продюсер                                 : Барбара Де Фина / Кэтлин Кеннеди / Фрэнк Маршалл
    Студия-производитель                     : Universal Pictures
    Жанр                                     : Drama
    Тип содержимого                          : Short Film
    Описание                                 : Матерый уголовник Макс Кейди выходит из тюрьмы, отсидев длительный срок за изнасилование. Его сердце переполнено злобой и ненавистью. Тогда, четырнадцать лет назад, его адвокатом на суде был Сэм Боуден. У него в руках была важная информация, которая, возможно, могла оправдать Макса...
    Дата записи                              : UTC 1991-11-15 08:00:00
    Дата кодирования                         : UTC 2016-07-28 14:31:59
    Дата пометки                             : UTC 2016-07-28 15:36:15
    Авторское право                          : © 1991 Universal Studios. All Rights Reserved.
    Обложка                                  : Yes
    Оценка                                   : None
    Title/Sort                               : Cape Fear
    LongDescription                          : Матерый уголовник Макс Кейди выходит из тюрьмы, отсидев длительный срок за изнасилование. Его сердце переполнено злобой и ненавистью. Тогда, четырнадцать лет назад, его адвокатом на суде был Сэм Боуден. У него в руках была важная информация, которая, возможно, могла оправдать Макса. / Но Сэм скрыл ее, и его клиент получил суровый приговор. Макс ничего не забыл, все эти годы он вынашивал план мести. И теперь намерен отыскать Боудена и преподать хороший урок ему, его жене и 15-летней дочери.
    HDVideo                                  : Yes
    AppleStoreCatalogID                      : 470532897
    Vendor                                   : Apple:vendor_id:1991-7101
    ContentRating                            : mpaa|R|400|Rated R For strong violence and language.
    Видео #1
    Идентификатор                            : 1
    Формат                                   : AVC
    Формат/Информация                        : Advanced Video Codec
    Профиль формата                          : High@L3.1
    Параметр CABAC формата                   : Нет
    Параметр ReFrames формата                : 3 кадра
    Идентификатор кодека                     : avc1
    Идентификатор кодека/Информация          : Advanced Video Coding
    Продолжительность                        : 2 ч. 7 м.
    Продолжительность оригинала              : 2 ч. 7 м.
    Битрейт                                  : 5000 Кбит/сек
    Ширина                                   : 1280 пикселей
    Высота                                   : 544 пикселя
    Соотношение сторон                       : 2,35:1
    Режим частоты кадров                     : Переменный
    Частота кадров                           : 23,976 (24000/1001) кадра/сек
    Минимальная частота кадров               : 23,810 кадра/сек
    Максимальная частота кадров              : 24,390 кадра/сек
    Цветовое пространство                    : YUV
    Субдискретизация насыщенности            : 4:2:0
    Битовая глубина                          : 8 бит
    Тип развёртки                            : Прогрессивная
    Бит/(Пиксели*Кадры)                      : 0.299
    Размер потока                            : 4,45 Гбайт (60%)
    Размер потока оригинала                  : 4,45 Гбайт (60%)
    Заголовок                                : Main Program
    Библиотека кодирования                   : x264 core 130 r2273 b3065e6
    Настройки программы                      : cabac=0 / ref=3 / deblock=1:-3:-2 / analyse=0x3:0x113 / me=umh / subme=9 / psy=1 / psy_rd=1.00:0.25 / mixed_ref=1 / me_range=32 / chroma_me=1 / trellis=0 / 8x8dct=1 / cqm=0 / deadzone=21,11 / fast_pskip=0 / chroma_qp_offset=-2 / threads=18 / lookahead_threads=1 / sliced_threads=0 / nr=0 / decimate=0 / interlaced=0 / bluray_compat=0 / constrained_intra=0 / bframes=3 / b_pyramid=0 / b_adapt=2 / b_bias=0 / direct=1 / weightb=0 / open_gop=0 / weightp=0 / keyint=240 / keyint_min=24 / scenecut=40 / intra_refresh=0 / rc_lookahead=40 / rc=2pass / mbtree=1 / bitrate=5000 / ratetol=1.0 / qcomp=0.60 / qpmin=0 / qpmax=69 / qpstep=4 / cplxblur=20.0 / qblur=0.5 / vbv_maxrate=9500 / vbv_bufsize=9500 / nal_hrd=none / ip_ratio=1.40 / aq=1:0.80
    Язык                                     : Russian
    Дата кодирования                         : UTC 2016-07-28 14:31:59
    Дата пометки                             : UTC 2016-07-28 14:32:36
    Цветовой диапазон                        : Limited
    Основные цвета                           : BT.709
    Характеристики трансфера                 : BT.709
    Коэффициенты матрицы                     : BT.709
    Menus                                    : 15,16
    Видео #2
    Идентификатор                            : 16
    Формат                                   : JPEG
    Идентификатор кодека                     : jpeg
    Продолжительность                        : 2 ч. 7 м.
    Вид битрейта                             : Переменный
    Битрейт                                  : 499 бит/сек
    Ширина                                   : 640 пикселей
    Высота                                   : 272 пикселя
    Соотношение сторон                       : 2,35:1
    Режим частоты кадров                     : Переменный
    Частота кадров                           : 0,002 кадр/сек
    Минимальная частота кадров               : 0,001 кадр/сек
    Максимальная частота кадров              : 0,006 кадр/сек
    Цветовое пространство                    : YUV
    Субдискретизация насыщенности            : 4:2:0
    Битовая глубина                          : 8 бит
    Метод сжатия                             : С потерями
    Бит/(Пиксели*Кадры)                      : 1.433
    Размер потока                            : 548 Кбайт (0%)
    Заголовок                                : Chapter Images
    Язык                                     : Russian
    Default                                  : Нет
    Дата кодирования                         : UTC 2016-07-28 15:35:48
    Дата пометки                             : UTC 2016-07-28 15:35:48
    Menu For                                 : 1
    Аудио #1
    Идентификатор                            : 2
    Формат                                   : AAC
    Формат/Информация                        : Advanced Audio Codec
    Профиль формата                          : LC
    Идентификатор кодека                     : 40
    Продолжительность                        : 2 ч. 7 м.
    Вид битрейта                             : Переменный
    Битрейт                                  : 165 Кбит/сек
    Максимальный битрейт                     : 262 Кбит/сек
    Каналы                                   : 2 канала
    Расположение каналов                     : Front: L R
    Частота                                  : 48,0 КГц
    Частота кадров                           : 46,875 кадров/сек (1024 spf)
    Метод сжатия                             : С потерями
    Размер потока                            : 151 Мбайт (2%)
    Заголовок                                : Russian DUB Blu-Ray Stereo
    Язык                                     : Russian
    Default                                  : Да
    Alternate group                          : 1
    Дата кодирования                         : UTC 2016-07-28 14:31:59
    Дата пометки                             : UTC 2016-07-28 14:32:14
    Fallback From                            : 7
    Subtitles                                : 11,12
    Menus                                    : 15
    Аудио #2
    Идентификатор                            : 3
    Формат                                   : AAC
    Формат/Информация                        : Advanced Audio Codec
    Профиль формата                          : LC
    Идентификатор кодека                     : 40
    Продолжительность                        : 2 ч. 7 м.
    Вид битрейта                             : Переменный
    Битрейт                                  : 127 Кбит/сек
    Максимальный битрейт                     : 264 Кбит/сек
    Каналы                                   : 2 канала
    Расположение каналов                     : Front: L R
    Частота                                  : 48,0 КГц
    Частота кадров                           : 46,875 кадров/сек (1024 spf)
    Метод сжатия                             : С потерями
    Размер потока                            : 116 Мбайт (2%)
    Заголовок                                : Russian MVO OPT Stereo
    Язык                                     : Russian
    Default                                  : Нет
    Alternate group                          : 1
    Дата кодирования                         : UTC 2016-07-28 14:32:00
    Дата пометки                             : UTC 2016-07-28 14:32:13
    Subtitles                                : 11,12
    Аудио #3
    Идентификатор                            : 4
    Формат                                   : AAC
    Формат/Информация                        : Advanced Audio Codec
    Профиль формата                          : LC
    Идентификатор кодека                     : 40
    Продолжительность                        : 2 ч. 7 м.
    Вид битрейта                             : Переменный
    Битрейт                                  : 165 Кбит/сек
    Максимальный битрейт                     : 272 Кбит/сек
    Каналы                                   : 2 канала
    Расположение каналов                     : Front: L R
    Частота                                  : 48,0 КГц
    Частота кадров                           : 46,875 кадров/сек (1024 spf)
    Метод сжатия                             : С потерями
    Размер потока                            : 151 Мбайт (2%)
    Заголовок                                : Russian DVO P.Glanz & I.Koroleva Stereo
    Язык                                     : Russian
    Default                                  : Нет
    Alternate group                          : 1
    Дата кодирования                         : UTC 2016-07-28 14:32:00
    Дата пометки                             : UTC 2016-07-28 14:32:14
    Fallback From                            : 8
    Subtitles                                : 11,12
    Аудио #4
    Идентификатор                            : 5
    Формат                                   : AAC
    Формат/Информация                        : Advanced Audio Codec
    Профиль формата                          : LC
    Идентификатор кодека                     : 40
    Продолжительность                        : 2 ч. 7 м.
    Вид битрейта                             : Переменный
    Битрейт                                  : 165 Кбит/сек
    Максимальный битрейт                     : 263 Кбит/сек
    Каналы                                   : 2 канала
    Расположение каналов                     : Front: L R
    Частота                                  : 48,0 КГц
    Частота кадров                           : 46,875 кадров/сек (1024 spf)
    Метод сжатия                             : С потерями
    Размер потока                            : 151 Мбайт (2%)
    Заголовок                                : Russian AVO A.Gavrilov Stereo
    Язык                                     : Russian
    Default                                  : Нет
    Alternate group                          : 1
    Дата кодирования                         : UTC 2016-07-28 14:32:00
    Дата пометки                             : UTC 2016-07-28 14:32:14
    Fallback From                            : 9
    Subtitles                                : 11,12
    Аудио #5
    Идентификатор                            : 6
    Формат                                   : AAC
    Формат/Информация                        : Advanced Audio Codec
    Профиль формата                          : LC
    Идентификатор кодека                     : 40
    Продолжительность                        : 2 ч. 7 м.
    Вид битрейта                             : Переменный
    Битрейт                                  : 165 Кбит/сек
    Максимальный битрейт                     : 268 Кбит/сек
    Каналы                                   : 2 канала
    Расположение каналов                     : Front: L R
    Частота                                  : 48,0 КГц
    Частота кадров                           : 46,875 кадров/сек (1024 spf)
    Метод сжатия                             : С потерями
    Размер потока                            : 151 Мбайт (2%)
    Заголовок                                : English Stereo
    Язык                                     : English
    Default                                  : Нет
    Alternate group                          : 1
    Дата кодирования                         : UTC 2016-07-28 14:32:00
    Дата пометки                             : UTC 2016-07-28 14:32:14
    Fallback From                            : 10
    Аудио #6
    Идентификатор                            : 7
    Формат                                   : AC-3
    Формат/Информация                        : Audio Coding 3
    Расширение режима                        : CM (complete main)
    Параметр Endianness формата              : Big
    Идентификатор кодека                     : ac-3
    Продолжительность                        : 2 ч. 7 м.
    Вид битрейта                             : Постоянный
    Битрейт                                  : 640 Кбит/сек
    Каналы                                   : 6 каналов
    Расположение каналов                     : Front: L C R, Side: L R, LFE
    Частота                                  : 48,0 КГц
    Частота кадров                           : 31,250 кадров/сек (1536 spf)
    Битовая глубина                          : 16 бит
    Метод сжатия                             : С потерями
    Размер потока                            : 585 Мбайт (8%)
    Заголовок                                : Russian DUB Blu-Ray DD 5 .1
    Язык                                     : Russian
    Default                                  : Inherited From: 2
    Alternate group                          : 1
    Дата кодирования                         : UTC 2016-07-28 15:22:54
    Дата пометки                             : UTC 2016-07-28 15:23:18
    Fallback To                              : 2
    Subtitles                                : 11,12
    Аудио #7
    Идентификатор                            : 8
    Формат                                   : AC-3
    Формат/Информация                        : Audio Coding 3
    Расширение режима                        : CM (complete main)
    Параметр Endianness формата              : Big
    Идентификатор кодека                     : ac-3
    Продолжительность                        : 2 ч. 7 м.
    Вид битрейта                             : Постоянный
    Битрейт                                  : 640 Кбит/сек
    Каналы                                   : 6 каналов
    Расположение каналов                     : Front: L C R, Side: L R, LFE
    Частота                                  : 48,0 КГц
    Частота кадров                           : 31,250 кадров/сек (1536 spf)
    Битовая глубина                          : 16 бит
    Метод сжатия                             : С потерями
    Размер потока                            : 585 Мбайт (8%)
    Заголовок                                : Russian DVO P.Glanz & I.Koroleva DD 5.1
    Язык                                     : Russian
    Default                                  : Нет
    Alternate group                          : 1
    Дата кодирования                         : UTC 2016-07-28 15:24:40
    Дата пометки                             : UTC 2016-07-28 15:25:35
    Fallback To                              : 4
    Subtitles                                : 11,12
    Аудио #8
    Идентификатор                            : 9
    Формат                                   : AC-3
    Формат/Информация                        : Audio Coding 3
    Расширение режима                        : CM (complete main)
    Параметр Endianness формата              : Big
    Идентификатор кодека                     : ac-3
    Продолжительность                        : 2 ч. 7 м.
    Вид битрейта                             : Постоянный
    Битрейт                                  : 640 Кбит/сек
    Каналы                                   : 6 каналов
    Расположение каналов                     : Front: L C R, Side: L R, LFE
    Частота                                  : 48,0 КГц
    Частота кадров                           : 31,250 кадров/сек (1536 spf)
    Битовая глубина                          : 16 бит
    Метод сжатия                             : С потерями
    Размер потока                            : 585 Мбайт (8%)
    Заголовок                                : Russian AVO A.Gavrilov DD 5.1
    Язык                                     : Russian
    Default                                  : Нет
    Alternate group                          : 1
    Дата кодирования                         : UTC 2016-07-28 15:24:40
    Дата пометки                             : UTC 2016-07-28 15:25:35
    Fallback To                              : 5
    Subtitles                                : 11,12
    Аудио #9
    Идентификатор                            : 10
    Формат                                   : AC-3
    Формат/Информация                        : Audio Coding 3
    Расширение режима                        : CM (complete main)
    Параметр Endianness формата              : Big
    Идентификатор кодека                     : ac-3
    Продолжительность                        : 2 ч. 7 м.
    Вид битрейта                             : Постоянный
    Битрейт                                  : 640 Кбит/сек
    Каналы                                   : 6 каналов
    Расположение каналов                     : Front: L C R, Side: L R, LFE
    Частота                                  : 48,0 КГц
    Частота кадров                           : 31,250 кадров/сек (1536 spf)
    Битовая глубина                          : 16 бит
    Метод сжатия                             : С потерями
    Размер потока                            : 585 Мбайт (8%)
    Заголовок                                : English DD 5.1
    Язык                                     : English
    Default                                  : Нет
    Alternate group                          : 1
    Дата кодирования                         : UTC 2016-07-28 15:30:05
    Дата пометки                             : UTC 2016-07-28 15:30:35
    Fallback To                              : 6
    Текст #1
    Идентификатор                            : 11
    Формат                                   : Timed Text
    Режим смешивания                         : sbtl
    Идентификатор кодека                     : tx3g
    Продолжительность                        : 1 ч. 28 м.
    Вид битрейта                             : Переменный
    Битрейт                                  : 0 бит/сек
    Размер потока                            : 214 байт (0%)
    Заголовок                                : Russian Forced Subtitle
    Язык                                     : Russian
    Default                                  : Да
    Forced                                   : Да
    Alternate group                          : 2
    Дата кодирования                         : UTC 2016-07-28 15:31:15
    Дата пометки                             : UTC 2016-07-28 15:31:15
    Subtitles For                            : 2,3,4,5,7,8,9
    Full Alternative                         : 12
    Текст #2
    Идентификатор                            : 12
    Формат                                   : Timed Text
    Режим смешивания                         : sbtl
    Идентификатор кодека                     : tx3g
    Продолжительность                        : 2 ч. 3 м.
    Вид битрейта                             : Переменный
    Битрейт                                  : 103 бит/сек
    Размер потока                            : 93,5 Кбайт (0%)
    Заголовок                                : Russian Subtitle
    Язык                                     : Russian
    Default                                  : Нет
    Forced                                   : Нет
    Alternate group                          : 2
    Дата кодирования                         : UTC 2016-07-28 15:31:15
    Дата пометки                             : UTC 2016-07-28 15:31:15
    Subtitles For                            : 2,3,4,5,7,8,9
    Forced Alternative                       : 11
    Текст #3
    Идентификатор                            : 13
    Формат                                   : Timed Text
    Режим смешивания                         : sbtl
    Идентификатор кодека                     : tx3g
    Продолжительность                        : 2 ч. 3 м.
    Вид битрейта                             : Переменный
    Битрейт                                  : 80 бит/сек
    Размер потока                            : 72,4 Кбайт (0%)
    Заголовок                                : English from BD Subtitle
    Язык                                     : English
    Default                                  : Нет
    Forced                                   : Нет
    Alternate group                          : 2
    Дата кодирования                         : UTC 2016-07-28 15:31:15
    Дата пометки                             : UTC 2016-07-28 15:31:15
    Текст #4
    Идентификатор                            : 14
    Формат                                   : Timed Text
    Режим смешивания                         : sbtl
    Идентификатор кодека                     : tx3g
    Продолжительность                        : 2 ч. 3 м.
    Вид битрейта                             : Переменный
    Битрейт                                  : 83 бит/сек
    Размер потока                            : 75,3 Кбайт (0%)
    Заголовок                                : English from DVD Subtitle
    Язык                                     : English
    Default                                  : Нет
    Forced                                   : Нет
    Alternate group                          : 2
    Дата кодирования                         : UTC 2016-07-28 15:31:15
    Дата пометки                             : UTC 2016-07-28 15:31:15
    Меню #1
    00:00:00.000                             : Main Titles
    00:02:40.285                             : My Reminiscence
    00:09:59.849                             : Max Cady
    00:17:51.779                             : The Buried Report
    00:20:58.132                             : Compensation
    00:25:09.007                             : The Prime Suspect
    00:31:32.224                             : One Hell of an Animal
    00:39:39.335                             : To Trap a Tiger
    00:43:46.290                             : Old Wounds
    00:51:30.045                             : Face-to-Face
    00:55:33.539                             : The Drama Teacher
    01:13:41.000                             : The Hospital Job
    01:17:34.608                             : The Tables Turn
    01:23:52.861                             : Kersek's Trap
    01:39:05.398                             : Cape Fear
    01:43:43.926                             : The Avenger
    01:55:23.083                             : To Die Like an Animal
    02:03:17.223                             : End Titles
    Меню #2
    Идентификатор                            : 15
    Идентификатор кодека                     : text
    Продолжительность                        : 2 ч. 7 м.
    Заголовок                                : Chapter Titles
    Язык                                     : English
    Дата кодирования                         : UTC 2016-07-28 15:35:43
    Дата пометки                             : UTC 2016-07-28 15:35:43
    Menu For                                 : 2,1
    00:00:00.000                             : Main Titles
    00:02:40.285                             : My Reminiscence
    00:09:59.849                             : Max Cady
    00:17:51.779                             : The Buried Report
    00:20:58.132                             : Compensation
    00:25:09.007                             : The Prime Suspect
    00:31:32.224                             : One Hell of an Animal
    00:39:39.335                             : To Trap a Tiger
    00:43:46.290                             : Old Wounds
    00:51:30.045                             : Face-to-Face
    00:55:33.539                             : The Drama Teacher
    01:13:41.000                             : The Hospital Job
    01:17:34.608                             : The Tables Turn
    01:23:52.861                             : Kersek's Trap
    01:39:05.398                             : Cape Fear
    01:43:43.926                             : The Avenger
    01:55:23.083                             : To Die Like an Animal
    02:03:17.223                             : End Titles
    Вид битрейта                             : VBR

    x264 лог 720p Release

    HandBrakeCLI -i "Cape.Fear.mkv" -t 1 -o "Cape.Fear.720p.rus.m4v" -f mp4 -4  -O  -w 1280 -l 544 --crop 132:132:0:0 --modulus 16 -e x264 -b 5000 -2 -a none -x cabac=0:ref=3:me=umh:b-pyramid=none:b-adapt=2:weightb=0:trellis=0:weightp=0:vbv-maxrate=9500:vbv-bufsize=9500:subq=9:merange=32:deblock=-3,-2:qcomp=0.60:qpmin=0:qpmax=69:fast_pskip=0:aq-strength=0.8:no-dct-decimate=1:psy-rd=1.00,0.25 --verbose=1
    x264 [info]: frame I:1472  Avg QP:15.35  size:105775  PSNR Mean Y:47.93 U:51.09 V:52.41 Avg:48.84 Global:48.41
    x264 [info]: frame P:59422 Avg QP:18.21  size: 44876  PSNR Mean Y:44.95 U:49.36 V:50.87 Avg:46.05 Global:45.46
    x264 [info]: frame B:122897 Avg QP:20.35  size: 15874  PSNR Mean Y:43.45 U:49.00 V:50.80 Avg:44.69 Global:44.08
    x264 [info]: consecutive B-frames:  2.1% 15.2% 33.1% 49.6%
    x264 [info]: mb I  I16..4:  5.5% 64.9% 29.6%
    x264 [info]: mb P  I16..4:  0.9%  9.8%  3.7%  P16..4: 39.6% 29.5% 12.3%  0.0%  0.0%    skip: 4.1%
    x264 [info]: mb B  I16..4:  0.1%  1.7%  0.6%  B16..8: 50.3% 13.8%  2.6%  direct: 6.2%  skip:24.7%  L0:41.4% L1:49.2% BI: 9.4%
    x264 [info]: 8x8 transform intra:68.8% inter:45.1%
    x264 [info]: coded y,uvDC,uvAC intra: 94.8% 76.1% 47.2% inter: 38.4% 20.3% 7.3%
    x264 [info]: i16 v,h,dc,p: 34% 15%  6% 45%
    x264 [info]: i8 v,h,dc,ddl,ddr,vr,hd,vl,hu:  8%  7%  4% 12% 17% 16% 14% 12% 10%
    x264 [info]: i4 v,h,dc,ddl,ddr,vr,hd,vl,hu:  8%  7%  2% 12% 19% 18% 14% 12%  9%
    x264 [info]: i8c dc,h,v,p: 51% 18% 20% 11%
    x264 [info]: ref P L0: 68.1% 19.2% 12.7%
    x264 [info]: ref B L0: 80.8% 19.2%
    x264 [info]: SSIM Mean Y:0.9714451 (15.443db)
    x264 [info]: PSNR Mean Y:43.970 U:49.134 V:50.832 Avg:45.162 Global:44.508 kb/s:4981.38

    Скриншоты 720p Release

    Цитата:
    Цитата:

    • Все звуковые дорожки, которые отсутствовали на Blu-Ray CEE взяты из раздачи
    -

    Релиз подготовлен для просмотра на Apple TV, iPad, iPhone, iPod Touch.
    Для просмотра данного релиза на компьютере с ОС Windows рекомендуется использовать VLC media player
    Скачать .torrent

    Скачать торрент-файл бесплатно и на максимальной скорости!

    Как скачивать? · Что такое торрент? · Рейтинг и ограничения

    !ВНИМАНИЕ!
    Сайт не распространяет и не хранит электронные версии произведений, а занимается лишь лишь предоставлением доступа к создаваемому пользователями каталогу ссылок на торрент-файлы, которые содержат только списки хеш-сумм, убедительная просьба с жалобами обращаться напрямую к пользователю. Файлы для обмена на трекере предоставлены пользователями сайта, и администрация не несёт ответственности за их содержание. Просьба не заливать файлы, защищенные авторскими правами, а также файлы нелегального содержания!


    _________________
    [Профиль] [ЛС]
    Показать сообщения:    
    Ответить на тему

    Текущее время: Сегодня, в 11:00

    Часовой пояс: GMT + 2



    Вы не можете начинать темы
    Вы не можете отвечать на сообщения
    Вы не можете редактировать свои сообщения
    Вы не можете удалять свои сообщения
    Вы не можете голосовать в опросах
    Вы не можете прикреплять файлы к сообщениям
    Вы не можете скачивать файлы