BitTorrentTracker PerecTracker.org
BitTorrentTracker PerecTracker.org
    
Регистрация  ·  Вход
 
 · 
Забыли пароль?

  • Убийцы фазана / Охотники на фазанов / Fasandræberne (Миккель Нёргор / Mikkel Nørgaard) [2014, Дания, Криминал, драма, BDRip] AVO (Алексеев) + Original + Subs (Rus, eng)

    Ответить на тему
     
    Автор Сообщение

    Light

    Создавать темы 29-Июл-2016 15:03

           

    [Цитировать]

    Убийцы фазана / Охотники на фазанов / Fasandræberne
    Страна: Дания
    Жанр: Криминал, драма
    Год выпуска: 2014
    Продолжительность: 01:59:40
    Перевод: Авторский (одноголосый закадровый) - (Алексеев)
    Cубтитры: Русские (полные), английские (полные)
    Оригинальная аудиодорожка: Датский
    Режиссер: Миккель Нёргор / Mikkel Nørgaard
    В ролях: Николай Ли Каас, Фарес Фарес, Даница Чурчич, Сара-Софи Бусснин, Йоханна Шмидт, Йохан Филип Асбек, Давид Денсик
    Описание: Жестокое убийство двух подростков, чьи тела были обнаружены в загородном домике, взбудоражило все местное население. Тогда полиция главными обвиняемыми считала их одноклассников, но никак не смогли это доказать. Однако, вскоре местный житель сам пришел с повинной в полицейский участок. Дело было закрыто и отправлено в архив. Спустя двадцать лет после этого события, дело убитых парней случайно попадает в поле зрения детективу Карлу Мерку и его напарнику. Изучив его и найдя в нем много несоответствий, любознательный детектив решает вновь открыть это дело и отправить на расследование ...
    Сэмпл: http://multi-up.com/1111832
    Качество видео: BDRip Исходник: [Охотники на фазанов Blu-Ray Remux (1080p) Кинозал]
    Формат видео: AVI
    Видео: 720x304 (2.37:1), 24.000 fps, XviD build 65 ~2176 kbps avg, 0.41 bit/pixel
    Аудио RUS: 48 kHz, AC3 Dolby Digital, 3/2 (L,C,R,l,r) + LFE ch, ~384 kbps
    Аудио DEN: 48 kHz, AC3 Dolby Digital, 3/2 (L,C,R,l,r) + LFE ch, ~448 kbps - отдельным файлом
    Формат субтитров: softsub (SRT)

    Rip by Ториял

    MediaInfo

    General
    Complete name : D:\Фильмы\The_Absent_One_2014_Toriyal_Rutracker\The_Absent_One_2014_Toriyal_Rutracker.avi
    Format : AVI
    Format/Info : Audio Video Interleave
    Format profile : OpenDML
    File size : 2.15 GiB
    Duration : 1h 59mn
    Overall bit rate : 2 568 Kbps
    Writing application : VirtualDubMod 1.5.10.2 (build 2540/release)
    Writing library : VirtualDubMod build 2540/release
    Video
    ID : 0
    Format : MPEG-4 Visual
    Format profile : Advanced Simple@L5
    Format settings, BVOP : 1
    Format settings, QPel : No
    Format settings, GMC : No warppoints
    Format settings, Matrix : Custom
    Codec ID : XVID
    Codec ID/Hint : XviD
    Duration : 1h 59mn
    Bit rate : 2 172 Kbps
    Width : 720 pixels
    Height : 304 pixels
    Display aspect ratio : 2.35:1
    Frame rate : 24.000 fps
    Color space : YUV
    Chroma subsampling : 4:2:0
    Bit depth : 8 bits
    Scan type : Progressive
    Compression mode : Lossy
    Bits/(Pixel*Frame) : 0.413
    Stream size : 1.82 GiB (85%)
    Writing library : XviD 65
    Audio
    ID : 1
    Format : AC-3
    Format/Info : Audio Coding 3
    Mode extension : CM (complete main)
    Format settings, Endianness : Big
    Codec ID : 2000
    Duration : 1h 59mn
    Bit rate mode : Constant
    Bit rate : 384 Kbps
    Channel(s) : 6 channels
    Channel positions : Front: L C R, Side: L R, LFE
    Sampling rate : 48.0 KHz
    Frame rate : 31.250 fps (1536 spf)
    Compression mode : Lossy
    Stream size : 329 MiB (15%)
    Alignment : Split accross interleaves
    Interleave, duration : 42 ms (1.00 video frame)
    Interleave, preload duratio : 500 ms

    Скриншоты

    Скачать .torrent

    Скачать торрент-файл бесплатно и на максимальной скорости!

    Как скачивать? · Что такое торрент? · Рейтинг и ограничения

    !ВНИМАНИЕ!
    Сайт не распространяет и не хранит электронные версии произведений, а занимается лишь лишь предоставлением доступа к создаваемому пользователями каталогу ссылок на торрент-файлы, которые содержат только списки хеш-сумм, убедительная просьба с жалобами обращаться напрямую к пользователю. Файлы для обмена на трекере предоставлены пользователями сайта, и администрация не несёт ответственности за их содержание. Просьба не заливать файлы, защищенные авторскими правами, а также файлы нелегального содержания!


    _________________
    [Профиль] [ЛС]
    Показать сообщения:    
    Ответить на тему

    Текущее время: Сегодня, в 19:51

    Часовой пояс: GMT + 2



    Вы не можете начинать темы
    Вы не можете отвечать на сообщения
    Вы не можете редактировать свои сообщения
    Вы не можете удалять свои сообщения
    Вы не можете голосовать в опросах
    Вы не можете прикреплять файлы к сообщениям
    Вы не можете скачивать файлы