BitTorrentTracker PerecTracker.org
BitTorrentTracker PerecTracker.org
    
Регистрация  ·  Вход
 
 · 
Забыли пароль?

  • Вероника Марс / Veronica Mars (Роб Томас / Rob Thomas) [2014, США, Драма, комедия, криминал, WEB-DLRip] VO (qwerty) + Original (Eng) + Subs (Rus, Eng)

    Ответить на тему
     
    Автор Сообщение

    Columb

    Создавать темы 16-Мар-2014 18:44

           

    [Цитировать]

    Вероника Марс / Veronica Mars-Год выпуска: 2014
    Выпущено: США / Warner Bros. Digital Distribution
    Жанр: драма, комедия, криминал
    Продолжительность: 01:47:37
    Перевод: Одноголосый закадровый |qwerty| + Оригинальная дорожка
    Cубтитры: Русские, Английские (внешние*srt)-Режиссер:
    Роб Томас / Rob Thomas-В ролях:
    Кристен Белл, Джейми Ли Кёртис, Джастин Лонг, Дэкс Шепард, Джерри О’Коннелл, Джейсон Доринг, Кристен Риттер, Райан Хансен, Фрэнсис Капра, Перси Даггс III, Крис Лоуэлл, Тина Мажорино, Энрико Колантони, Джеймс Франко-Описание:
    Когда-то помогая отцу распутывать преступления в родном городе Нептун, Вероника Марс понимала, что это не будет длиться вечно. Уехав в Нью-Йорк и получив должность адвоката в хорошей фирме, она была уверена, что вырвалась из замкнутого круга. Она ошибалась. Ее бывший парень Логан Экхолз обвиняется в убийстве своей подруги — молодой старлетки. Приняв решение помочь ему, Вероника возвращается в Нептун и начинает собственное расследование. Внезапно она оказывается в самой гуще событий, окруженная друзьями и врагами. И самый большой вопрос — кому можно верить, а кому — нет…-IMDB | КиноПоиск | Сэмпл |-Качество: WEB-DLRip [Veronica.Mars.2014.720p.WEB-DL.H264-PublicHD]
    Формат: AVI
    Видео: 720x304 (2.37:1), 23.976 fps, XviD build 73 ~1595 kbps avg, 0.30 bit/pixel
    Аудио #1: 48 kHz, AC3 Dolby Digital, 3/2 (L,C,R,l,r) + LFE ch, ~384.00 kbps avg (RUS)
    Аудио #2: 48 kHz, AC3 Dolby Digital, 3/2 (L,C,R,l,r) + LFE ch, ~384.00 kbps avg (ENG) отдельно
    -

    Скриншоты

    MediaInfo

    General
    Complete name                            : D:\Veronika_Mars_2014_WEB_DLRip_by_Dalemake.avi
    Format                                   : AVI
    Format/Info                              : Audio Video Interleave
    File size                                : 1.48 GiB
    Duration                                 : 1h 47mn
    Overall bit rate                         : 1 989 Kbps
    Writing application                      : VirtualDubMod 1.5.10.3 | www.virtualdub-fr.org || (build 2550/release)
    Writing library                          : VirtualDubMod build 2550/release
    Video
    ID                                       : 0
    Format                                   : MPEG-4 Visual
    Format profile                           : Advanced Simple@L5
    Format settings, BVOP                    : 1
    Format settings, QPel                    : No
    Format settings, GMC                     : No warppoints
    Format settings, Matrix                  : Custom
    Codec ID                                 : XVID
    Codec ID/Hint                            : XviD
    Duration                                 : 1h 47mn
    Bit rate                                 : 1 596 Kbps
    Width                                    : 720 pixels
    Height                                   : 304 pixels
    Display aspect ratio                     : 2.35:1
    Frame rate                               : 23.976 fps
    Color space                              : YUV
    Chroma subsampling                       : 4:2:0
    Bit depth                                : 8 bits
    Scan type                                : Progressive
    Compression mode                         : Lossy
    Bits/(Pixel*Frame)                       : 0.304
    Stream size                              : 1.20 GiB (80%)
    Writing library                          : XviD 73
    Audio
    ID                                       : 1
    Format                                   : AC-3
    Format/Info                              : Audio Coding 3
    Mode extension                           : CM (complete main)
    Format settings, Endianness              : Big
    Codec ID                                 : 2000
    Duration                                 : 1h 47mn
    Bit rate mode                            : Constant
    Bit rate                                 : 384 Kbps
    Channel(s)                               : 6 channels
    Channel positions                        : Front: L C R, Side: L R, LFE
    Sampling rate                            : 48.0 KHz
    Bit depth                                : 16 bits
    Compression mode                         : Lossy
    Stream size                              : 296 MiB (19%)
    Alignment                                : Split accross interleaves
    Interleave, duration                     : 42 ms (1.00 video frame)
    Interleave, preload duration             : 500 ms
    -
    Скачать .torrent

    Скачать торрент-файл бесплатно и на максимальной скорости!

    Как скачивать? · Что такое торрент? · Рейтинг и ограничения

    !ВНИМАНИЕ!
    Сайт не распространяет и не хранит электронные версии произведений, а занимается лишь лишь предоставлением доступа к создаваемому пользователями каталогу ссылок на торрент-файлы, которые содержат только списки хеш-сумм, убедительная просьба с жалобами обращаться напрямую к пользователю. Файлы для обмена на трекере предоставлены пользователями сайта, и администрация не несёт ответственности за их содержание. Просьба не заливать файлы, защищенные авторскими правами, а также файлы нелегального содержания!

    [Профиль] [ЛС]
    Показать сообщения:    
    Ответить на тему

    Текущее время: Сегодня, в 17:34

    Часовой пояс: GMT + 2



    Вы не можете начинать темы
    Вы не можете отвечать на сообщения
    Вы не можете редактировать свои сообщения
    Вы не можете удалять свои сообщения
    Вы не можете голосовать в опросах
    Вы не можете прикреплять файлы к сообщениям
    Вы не можете скачивать файлы