BitTorrentTracker PerecTracker.org
BitTorrentTracker PerecTracker.org
    
Регистрация  ·  Вход
 
 · 
Забыли пароль?

  • Славные парни / The Nice Guys (Шейн Блэк / Shane Black ) [2016, США, Великобритания, Криминал, комедия, WEB-DL, HD (720p)] DUB

    Ответить на тему
     
    Автор Сообщение

    rechyn

    Создавать темы 29-Июл-2016 02:30

           

    [Цитировать]

    Славные парни / The Nice Guys
    «Симпатичная пара»
    7.451 / 10 7.70 / 10
    -Год выпуска: 2016
    Страна: США, Великобритания
    Жанр: Криминал, комедия
    Продолжительность: 01:51:03
    Перевод: Дублированный (iTunes)
    Оригинальная аудиодорожка: Нет
    Cубтитры: Нет
    Режиссёр: Шейн Блэк
    Сценарий: Шейн Блэк, Энтони Багароцци
    Продюсер: Джоэл Силвер, Аарон Ауч, Энтони Багароцци
    Оператор: Филипп Русло
    Композитор: Дэвид Бакли, Джон Оттмен
    Художник: Ричард Бриджлэнд, Дэвид Атли, Ким Барретт
    Монтаж: Джоэль Негрон
    В ролях: Райан Гослинг, Ким Бейсингер, Рассел Кроу, Энгаури Райс, Мэтт Бомер, Маргарет Куэлли, Йайа ДаКоста, Кит Дэвид, Бо Напп, Лоис Смит
    Бюджет: $50 000 000
    Сборы в США: $36 213 600
    Сборы в России: $2 462 171
    Мировая премьера: 15 мая 2016
    Премьера (РФ): 16 июня 2016, «Парадиз»
    Описание: Что бывает, когда напарником брутального костолома становится субтильный лопух? Наемный охранник Джексон Хили и частный детектив Холланд Марч вынуждены работать в паре, чтобы распутать плевое дело о пропавшей девушке, которое оборачивается преступлением века.
    Смогут ли парни разгадать сложный ребус, если у каждого из них — свои, весьма индивидуальные методы…-Качество исходника: WEB-DL 720p (NNMClub)
    Качество: WEB-DL
    Тип: HD (720p)
    Контейнер: M4V
    Видео: H.264, 1280@960x536, 2.40:1, 4 013 Kbps, 25.000 fps
    Аудио 1: Русский/Дублированный (iTunes), AAC / 2.0 / 157 Kbps / 48.0 KHz
    Аудио 2: Русский/Дублированный (iTunes), AC-3 / 5.1 / 384 Kbps / 48.0 KHz
    -

    iTunes Meta Tags

    Sort Name: Славные парни
    XID: Apple:vendor_id:2016-841152
    contentID: 1131343991
    Copyright: © 2016 X-Медиа
    Screenwriters: Шейн Блэк, Энтони Багароцци
    Producers: Джоэл Силвер, Аарон Ауч, Энтони Багароцци
    Director: Шейн Блэк
    Cast: Райан Гослинг, Ким Бейсингер, Рассел Кроу, Энгаури Райс, Мэтт Бомер, Маргарет Куэлли, Йайа ДаКоста, Кит Дэвид, Бо Напп, Лоис Смит, Михаил Тихонов, Ольга Плетнёва, Олег Куценко
    Studio: Bloom, Lip Sync Productions, Misty Mountains
    Rating: 135
    Long Description: Что бывает, когда напарником брутального костолома становится субтильный лопух? Наемный охранник Джексон Хили и частный детектив Холланд Марч вынуждены работать в паре, чтобы распутать плевое дело о пропавшей девушке, которое оборачивается преступлением века.
    Смогут ли парни разгадать сложный ребус, если у каждого из них - свои, весьма индивидуальные методы...
    Description: Что бывает, когда напарником брутального костолома становится субтильный лопух? Наемный охранник Джексон Хили и частный детектив Холланд Марч вынуждены работать в паре, чтобы распутать плевое дело о пропавшей девушке, которое оборачивается преступлением века.
    Смогут ли парни разгадать сложный ребус, если у каждого из них - свои, весьма индивидуальные методы...
    Release Date: 2016-05-15T08:00:00Z
    Genre: Комедии
    Artist: Shane Black
    Name: Славные парни

    MediaInfo

    General
    Complete name : /Users/imac/HandBrake/The.Nice.Guys.WEB-DL.720p.m4v
    Format : MPEG-4
    Codec ID : M4V
    File size : 3.54 GiB
    Duration : 1h 51mn
    Overall bit rate mode : Variable
    Overall bit rate : 4 567 Kbps
    Movie name : Славные парни
    Performer : Shane Black
    Director : Шейн Блэк
    Actor : Райан Гослинг / Ким Бейсингер / Рассел Кроу / Энгаури Райс / Мэтт Бомер / Маргарет Куэлли / Йайа ДаКоста / Кит Дэвид / Бо Напп / Лоис Смит / Михаил Тихонов / Ольга Плетнёва / Олег Куценко
    Screenplay by : Шейн Блэк / Энтони Багароцци
    Producer : Джоэл Силвер / Аарон Ауч / Энтони Багароцци
    Production studio : Bloom, Lip Sync Productions, Misty Mountains
    Genre : Комедии
    ContentType : Short Film
    Description : Что бывает, когда напарником брутального костолома становится субтильный лопух? Наемный охранник Джексон Хили и частный детектив Холланд Марч вынуждены работать в паре, чтобы распутать плевое дело о пропавшей девушке, которое оборачивается преступлением века.  / Смогут ли парни разгадать сложный ребус, если у каждого из них - свои, весьма индивидуальные методы...
    Recorded date : UTC 2016-05-15 08:00:00
    Encoded date : UTC 2016-07-28 20:40:11
    Tagged date : UTC 2016-07-28 20:41:11
    Copyright : © 2016 X-Медиа
    Cover : Yes
    Rating : None
    Title/Sort : Славные парни
    LongDescription : Что бывает, когда напарником брутального костолома становится субтильный лопух? Наемный охранник Джексон Хили и частный детектив Холланд Марч вынуждены работать в паре, чтобы распутать плевое дело о пропавшей девушке, которое оборачивается преступлением века.   Смогут ли парни разгадать сложный ребус, если у каждого из них - свои, весьма индивидуальные методы...
    HDVideo : Yes
    AppleStoreCatalogID : 1131343991
    Vendor : Apple:vendor_id:2016-841152
    ContentRating : ru-movie|16+|375|
    Video #1
    ID : 1
    Format : AVC
    Format/Info : Advanced Video Codec
    Format profile : Main@L3.1
    Format settings, CABAC : No
    Format settings, ReFrames : 2 frames
    Codec ID : avc1
    Codec ID/Info : Advanced Video Coding
    Duration : 1h 51mn
    Bit rate : 4 013 Kbps
    Width : 960 pixels
    Height : 536 pixels
    Display aspect ratio : 2.40:1
    Frame rate mode : Constant
    Frame rate : 25.000 fps
    Color space : YUV
    Chroma subsampling : 4:2:0
    Bit depth : 8 bits
    Scan type : Progressive
    Bits/(Pixel*Frame) : 0.312
    Stream size : 3.11 GiB (88%)
    Title : Main Program
    Language : English
    Encoded date : UTC 2016-07-28 20:40:11
    Tagged date : UTC 2016-07-28 20:40:32
    Color range : Limited
    Color primaries : BT.709
    Transfer characteristics : BT.709
    Matrix coefficients : BT.709
    Video #2
    ID : 5
    Format : JPEG
    Codec ID : jpeg
    Duration : 1h 51mn
    Bit rate mode : Variable
    Bit rate : 848 bps
    Width : 640 pixels
    Height : 268 pixels
    Display aspect ratio : 2.40:1
    Frame rate mode : Variable
    Frame rate : 0.003 fps
    Minimum frame rate : 0.001 fps
    Maximum frame rate : 0.003 fps
    Color space : YUV
    Chroma subsampling : 4:2:0
    Bit depth : 8 bits
    Compression mode : Lossy
    Bits/(Pixel*Frame) : 1.648
    Stream size : 621 KiB (0%)
    Title : Chapter Images
    Language : English
    Encoded date : UTC 2016-07-28 20:40:35
    Tagged date : UTC 2016-07-28 20:40:36
    Audio #1
    ID : 2
    Format : AAC
    Format/Info : Advanced Audio Codec
    Format profile : LC
    Codec ID : 40
    Duration : 1h 51mn
    Bit rate mode : Variable
    Bit rate : 157 Kbps
    Maximum bit rate : 228 Kbps
    Channel(s) : 2 channels
    Channel positions : Front: L R
    Sampling rate : 48.0 KHz
    Compression mode : Lossy
    Stream size : 125 MiB (3%)
    Title : Russian Stereo
    Language : Russian
    Encoded date : UTC 2016-07-28 20:40:11
    Tagged date : UTC 2016-07-28 20:40:30
    Audio #2
    ID : 3
    Format : AC-3
    Format/Info : Audio Coding 3
    Mode extension : CM (complete main)
    Format settings, Endianness : Big
    Codec ID : ac-3
    Duration : 1h 51mn
    Bit rate mode : Constant
    Bit rate : 384 Kbps
    Channel(s) : 6 channels
    Channel positions : Front: L C R, Side: L R, LFE
    Sampling rate : 48.0 KHz
    Bit depth : 16 bits
    Compression mode : Lossy
    Stream size : 305 MiB (8%)
    Title : Russian DD 5.1
    Language : Russian
    Encoded date : UTC 2016-07-28 20:40:11
    Tagged date : UTC 2016-07-28 20:40:30
    Menu #1
    00:00:00.000 : 1
    00:05:11.920 : 2
    00:10:32.080 : 3
    00:15:49.320 : 4
    00:21:52.600 : 5
    00:27:59.160 : 6
    00:33:26.560 : 7
    00:39:43.040 : 8
    00:45:19.960 : 9
    00:50:40.440 : 10
    00:56:20.680 : 11
    01:03:01.800 : 12
    01:08:38.720 : 13
    01:14:35.520 : 14
    01:21:06.640 : 15
    01:27:33.440 : 16
    01:33:37.520 : 17
    01:39:12.280 : 18
    Menu #2
    ID : 4
    Codec ID : text
    Duration : 1h 51mn
    Language : English
    Encoded date : UTC 2016-07-28 20:40:32
    Tagged date : UTC 2016-07-28 20:40:32
    00:00:00.000 : 1
    00:05:11.920 : 2
    00:10:32.080 : 3
    00:15:49.320 : 4
    00:21:52.600 : 5
    00:27:59.160 : 6
    00:33:26.560 : 7
    00:39:43.040 : 8
    00:45:19.960 : 9
    00:50:40.440 : 10
    00:56:20.680 : 11
    01:03:01.800 : 12
    01:08:38.720 : 13
    01:14:35.520 : 14
    01:21:06.640 : 15
    01:27:33.440 : 16
    01:33:37.520 : 17
    01:39:12.280 : 18
    Bit rate mode : VBR

    Скриншоты

    -

    Релиз подготовлен для просмотра на Apple TV, iPad, iPhone, iPod Touch.
    Для просмотра данного релиза на компьютере с ОС Windows рекомендуется использовать VLC media player
    Скачать .torrent

    Скачать торрент-файл бесплатно и на максимальной скорости!

    Как скачивать? · Что такое торрент? · Рейтинг и ограничения

    !ВНИМАНИЕ!
    Сайт не распространяет и не хранит электронные версии произведений, а занимается лишь лишь предоставлением доступа к создаваемому пользователями каталогу ссылок на торрент-файлы, которые содержат только списки хеш-сумм, убедительная просьба с жалобами обращаться напрямую к пользователю. Файлы для обмена на трекере предоставлены пользователями сайта, и администрация не несёт ответственности за их содержание. Просьба не заливать файлы, защищенные авторскими правами, а также файлы нелегального содержания!


    _________________
    [Профиль] [ЛС]
    Показать сообщения:    
    Ответить на тему

    Текущее время: Сегодня, в 18:07

    Часовой пояс: GMT + 2



    Вы не можете начинать темы
    Вы не можете отвечать на сообщения
    Вы не можете редактировать свои сообщения
    Вы не можете удалять свои сообщения
    Вы не можете голосовать в опросах
    Вы не можете прикреплять файлы к сообщениям
    Вы не можете скачивать файлы