BitTorrentTracker PerecTracker.org
BitTorrentTracker PerecTracker.org
    
Регистрация  ·  Вход
 
 · 
Забыли пароль?

  • Спрятанный в лесу / Скрытые в лесу / Hidden in the Woods (Патрисио Вальядарес / Patricio Valladares) [2014, США, Франция, Триллер, драма, HDRip] AVO (Дольский)

    Ответить на тему
     
    Автор Сообщение

    Light

    Создавать темы 28-Июл-2016 22:18

           

    [Цитировать]

    Спрятанный в лесу / Скрытые в лесу / Hidden in the Woods
    Страна: США, Франция
    Жанр: Триллер, драма
    Год выпуска: 2014
    Продолжительность: 01:30:42
    Перевод: Авторский (одноголосый закадровый) Андрей Игоревич Дольский
    Cубтитры: нет
    Режиссер: Патрисио Вальядарес / Patricio Valladares
    В ролях: Майкл Бин, Джаннин Каспар, Электра Авеллан, Уильям Форсайт, Ник Бейтман, Дженнифер Бланк, Крис Браунинг, Кэйтлин Китс, Эви Томпсон, Кшиштоф Сошинский, Дизел Рамос, ...
    Описание: Две подрастающие сестры и их маленький брат с отклонениями, все свое детство провели в состоянии ужаса из-за жестокого отца, но впереди их ждали еще более серьезные испытания. В приступе ярости, безумный глава семейства убивает жену, а подростки остаются наедине с кошмаром, который устроил их папочка. Но ведь можно вызывать полицию и позвать соседей, подумаете Вы, но все намного сложнее, дом семейства находится в чаще огромного леса и выбраться отсюда очень сложно, а тем более запуганным детям. А тем временем папаша ежедневно устраивает дочерям страшные наказания и насилует их без зазрения совести, спрятаться им некуда и защиты просить не у кого. Кроме того, наркодилеры пользуются услугами хозяина дома и прячут здесь свой товар, как быть детям, не знающим к кому обратиться, их окружают преступники и безумный отец-насильник. Но однажды, шанс на спасение появился, неожиданные гости в лесу взбудоражили семейство, полиция, нагрянула с целью обыскать дом на наличие наркотиков и у девочек появилась наконец-то надежда. Однако отец-маньяк расправился с полицейскими, но девочкам все же удалось бежать, вот только теперь их преследуют еще и наркоторговцы, которым не терпится узнать, где товар, который они оставили в лесном доме
    Сэмпл: http://multi-up.com/1111764
    Качество видео: HDRip (Исходник BDRip 720p)
    Формат видео: AVI
    Видео: XviD 73, 656x368, (16:6), 23,976 fps, 1011 Кбит/с, 8 бит
    Аудио: Русский (MP3, 2 ch, 48,0 KHz, 128 Kbps)

    MediaInfo

    Общее
    Полное имя : F:\Видеофильмы\В и д е о\Спрятанный в лесу (триллер 2014г).avi
    Формат : AVI
    Формат/Информация : Audio Video Interleave
    Размер файла : 745 Мбайт
    Продолжительность : 1 ч. 30 м.
    Общий поток : 1148 Кбит/сек
    Программа кодирования : VirtualDubMod 1.5.10.3 | www.virtualdub-fr.org || (build 2550/release)
    Библиотека кодирования : VirtualDubMod build 2550/release
    Видео
    Идентификатор : 0
    Формат : MPEG-4 Visual
    Профиль формата : Advanced Simple@L5
    Параметр BVOP формата : 1
    Параметр QPel формата : Нет
    Параметр GMC формата : Без точки перехода
    Параметр матрицы формата : Выборочная
    Идентификатор кодека : XVID
    Идентификатор кодека/Подсказка : XviD
    Продолжительность : 1 ч. 30 м.
    Битрейт : 1011 Кбит/сек
    Ширина : 656 пикселей
    Высота : 368 пикселей
    Соотношение сторон : 16:9
    Частота кадров : 23,976 (23976/1000) кадра/сек
    Цветовое пространство : YUV
    Субдискретизация насыщенности : 4:2:0
    Битовая глубина : 8 бит
    Тип развёртки : Прогрессивная
    Метод сжатия : С потерями
    Бит/(Пиксели*Кадры) : 0.175
    Размер потока : 656 Мбайт (88%)
    Библиотека кодирования : XviD 73
    Аудио
    Идентификатор : 1
    Формат : MPEG Audio
    Версия формата : Version 1
    Профиль формата : Layer 3
    Идентификатор кодека : 55
    Идентификатор кодека/Подсказка : MP3
    Продолжительность : 1 ч. 30 м.
    Вид битрейта : Постоянный
    Битрейт : 128 Кбит/сек
    Каналы : 2 канала
    Частота : 48,0 КГц
    Метод сжатия : С потерями
    Размер потока : 83,0 Мбайт (11%)
    Выравнивание : Соединение по промежуткам
    Продолжительность промежутка : 42 мс. (1,00 видеокадр)
    Время предзагрузки промежутка : 504 мс.
    Библиотека кодирования : LAME3.99r
    Настройки программы : -m s -V 4 -q 2 -lowpass 17 -b 128

    Скриншот c названием фильма

    Скриншоты

    Скачать .torrent

    Скачать торрент-файл бесплатно и на максимальной скорости!

    Как скачивать? · Что такое торрент? · Рейтинг и ограничения

    !ВНИМАНИЕ!
    Сайт не распространяет и не хранит электронные версии произведений, а занимается лишь лишь предоставлением доступа к создаваемому пользователями каталогу ссылок на торрент-файлы, которые содержат только списки хеш-сумм, убедительная просьба с жалобами обращаться напрямую к пользователю. Файлы для обмена на трекере предоставлены пользователями сайта, и администрация не несёт ответственности за их содержание. Просьба не заливать файлы, защищенные авторскими правами, а также файлы нелегального содержания!


    _________________
    [Профиль] [ЛС]
    Показать сообщения:    
    Ответить на тему

    Текущее время: Сегодня, в 01:24

    Часовой пояс: GMT + 2



    Вы не можете начинать темы
    Вы не можете отвечать на сообщения
    Вы не можете редактировать свои сообщения
    Вы не можете удалять свои сообщения
    Вы не можете голосовать в опросах
    Вы не можете прикреплять файлы к сообщениям
    Вы не можете скачивать файлы