BitTorrentTracker PerecTracker.org
BitTorrentTracker PerecTracker.org
    
Регистрация  ·  Вход
 
 · 
Забыли пароль?

  • Храм Русской души [04.03.2014, торжество Православия, WEBRip]

    Ответить на тему
     
    Автор Сообщение

    Columb

    Создавать темы 16-Мар-2014 18:43

           

    [Цитировать]

    Храм Русской души
    Дата/Год выпуска: 04.03.2014
    Страна: Россия
    Жанр: торжество Православия
    Продолжительность: 00:23:20
    Перевод: Не требуется
    Русские субтитры: нет
    Оригинальная аудиодорожка: русский
    Телеканал: День ТВ
    Описание: Андрей Фефелов и Константин Душенов об историческом значении церкви в судьбе Русского народа.
    качество: WEBRip
    формат: AVI
    Видео: xvid, 720x400 (16:9), 25.000 fps, 1 987 Kbps (0.276 bit/pixel)
    Аудио: MP3, 44.1 KHz, 2 ch, 192 Kbps, CBR

    MediaInfo

    GeneralComplete name : D:\документалка\AVI\Храм Русской души.aviFormat : AVIFormat/Info : Audio Video InterleaveFile size : 365 MiBDuration : 23mn 20sOverall bit rate : 2 189 KbpsWriting application : VirtualDubMod 1.5.10.2 (build 2540/release)Writing library : VirtualDubMod build 2540/release
    VideoID : 0Format : xvidCodec ID : xvidDuration : 23mn 20sBit rate : 1 987 KbpsWidth : 720 pixelsHeight : 400 pixelsDisplay aspect ratio : 16:9Frame rate : 25.000 fpsBits/(Pixel*Frame) : 0.276Stream size : 332 MiB (91%)
    AudioID : 1Format : MPEG AudioFormat version : Version 1Format profile : Layer 3Mode : Joint stereoMode extension : MS StereoCodec ID : 55Codec ID/Hint : MP3Duration : 23mn 20sBit rate mode : ConstantBit rate : 192 KbpsChannel(s) : 2 channelsSampling rate : 44.1 KHzCompression mode : LossyDelay relative to video : 20msStream size : 32.0 MiB (9%)Alignment : Split accross interleavesInterleave, duration : 40 ms (1.00 video frame)Interleave, preload duration : 500 msWriting library : LAME3.98.4

    Скриншоты

    Скачать .torrent

    Скачать торрент-файл бесплатно и на максимальной скорости!

    Как скачивать? · Что такое торрент? · Рейтинг и ограничения

    !ВНИМАНИЕ!
    Сайт не распространяет и не хранит электронные версии произведений, а занимается лишь лишь предоставлением доступа к создаваемому пользователями каталогу ссылок на торрент-файлы, которые содержат только списки хеш-сумм, убедительная просьба с жалобами обращаться напрямую к пользователю. Файлы для обмена на трекере предоставлены пользователями сайта, и администрация не несёт ответственности за их содержание. Просьба не заливать файлы, защищенные авторскими правами, а также файлы нелегального содержания!

    [Профиль] [ЛС]
    Показать сообщения:    
    Ответить на тему

    Текущее время: Сегодня, в 22:32

    Часовой пояс: GMT + 2



    Вы не можете начинать темы
    Вы не можете отвечать на сообщения
    Вы не можете редактировать свои сообщения
    Вы не можете удалять свои сообщения
    Вы не можете голосовать в опросах
    Вы не можете прикреплять файлы к сообщениям
    Вы не можете скачивать файлы