Register  ·  Log in
Forgot password?

  • Храм Русской души [04.03.2014, торжество Православия, WEBRip]

    Reply to topic
    Author Message


    Post 16-Mar-2014 19:43



    Храм Русской души
    Дата/Год выпуска: 04.03.2014
    Страна: Россия
    Жанр: торжество Православия
    Продолжительность: 00:23:20
    Перевод: Не требуется
    Русские субтитры: нет
    Оригинальная аудиодорожка: русский
    Телеканал: День ТВ
    Описание: Андрей Фефелов и Константин Душенов об историческом значении церкви в судьбе Русского народа.
    качество: WEBRip
    формат: AVI
    Видео: xvid, 720x400 (16:9), 25.000 fps, 1 987 Kbps (0.276 bit/pixel)
    Аудио: MP3, 44.1 KHz, 2 ch, 192 Kbps, CBR


    GeneralComplete name : D:\документалка\AVI\Храм Русской души.aviFormat : AVIFormat/Info : Audio Video InterleaveFile size : 365 MiBDuration : 23mn 20sOverall bit rate : 2 189 KbpsWriting application : VirtualDubMod (build 2540/release)Writing library : VirtualDubMod build 2540/release
    VideoID : 0Format : xvidCodec ID : xvidDuration : 23mn 20sBit rate : 1 987 KbpsWidth : 720 pixelsHeight : 400 pixelsDisplay aspect ratio : 16:9Frame rate : 25.000 fpsBits/(Pixel*Frame) : 0.276Stream size : 332 MiB (91%)
    AudioID : 1Format : MPEG AudioFormat version : Version 1Format profile : Layer 3Mode : Joint stereoMode extension : MS StereoCodec ID : 55Codec ID/Hint : MP3Duration : 23mn 20sBit rate mode : ConstantBit rate : 192 KbpsChannel(s) : 2 channelsSampling rate : 44.1 KHzCompression mode : LossyDelay relative to video : 20msStream size : 32.0 MiB (9%)Alignment : Split accross interleavesInterleave, duration : 40 ms (1.00 video frame)Interleave, preload duration : 500 msWriting library : LAME3.98.4


    Download .torrent

    Download free and at maximum speed!

    How to Download? · What is a torrent? · Ratings and Limitations

    The site does not extend and does not store electronic(digital) versions of products, and only gives access to a reference catalogue created by users on torrent-files which contain only lists of the hash-sums, the earnest entreaty, with complaints(abuse) to access directly to the user. Files for an exchange on tracker are given by users of a site, and the administration does not bear the responsibility for their maintenance. The request to not fill in the files protected by copyrights, and also files of the illegal maintenance!

    [Profile] [PM]
    Display posts from previous:    
    Reply to topic

    The time now is: Today 01:01

    All times are GMT + 3 Hours

    You cannot post new topics in this forum
    You cannot reply to topics in this forum
    You cannot edit your posts in this forum
    You cannot delete your posts in this forum
    You cannot vote in polls in this forum
    You cannot attach files in this forum
    You cannot download files in this forum