BitTorrentTracker PerecTracker.org
BitTorrentTracker PerecTracker.org
    
Регистрация  ·  Вход
 
 · 
Забыли пароль?

  • Петр Лещенко. Все, что было… / Серии: 1-8 из 8 (Владимир Котт) [2013, мелодрама, биография, история, WEBRip (720p)]

    Ответить на тему
     
    Автор Сообщение

    rechyn

    Создавать темы 28-Июл-2016 21:29

           

    [Цитировать]

    Петр Лещенко. Все, что было…--Год выпуска: 2013
    Производство: "Централ Партнершип"
    Жанр: мелодрама, биография, история
    Продолжительность: 00:52:00
    Субтитры: нет-Режиссёр: Владимир Котт-В ролях:
    Константин Хабенский, Иван Стебунов, Виктория Исакова, Андрей Мерзликин, Борис Каморзин, Олег Мазуров,
    Мириам Сехон, Елена Лотова, Алексей Кравченко, Евгения Добровольская, Евгений Сидихин-Описание:
    Драматическая история жизни легендарного певца Петра Лещенко. Фильм расскажет о его детстве и молодости, прошедших в Кишиневе, о сражениях в Первой мировой войне, о пламенной любви, о начале карьеры и о днях всенародной славы. В разгар Великой Отечественной войны Лещенко, несмотря на все опасности, отправляется на гастроли в оккупированную Одессу — и лишь чудом возвращается оттуда живым, чтобы вскоре попасть в тюрьму…-Все раздачи сериала-Возраст: 12+-Качество: WEBRip (720p)
    Формат: MKV
    Видео кодек: AVC
    Аудио кодек: AC3

    Видео: AVC, 1280 х 720 (16:9), 25,000 кадр/сек, 2 550 Кбит/сек, 0.112 bit/pixel
    Аудио: AC3, 48000 Hz, 256 Kbps, 2 канала
    -

    MediaInfo

    General
    Unique ID : 235853533343670516403759951731706082202 (0xB16FBCFD024D50B399889FF789B4B39A)
    Complete name : D:\Раздачи\Петр Лещенко. Все, что было... (1-8 серий из 8) WEB-DL (720p)\Petr-Leshchenko.vse.chto.bylo.(07.seriya.iz.08).2013.WEB-DL.(720p).MediaClub.mkv
    Format : Matroska
    Format version : Version 2
    File size : 1.04 GiB
    Duration : 53mn 1s
    Overall bit rate : 2 808 Kbps
    Movie name : Petr-Leshchenko.vse.chto.bylo.(07.seriya.iz.08).2013.WEB-DL.(720p).MediaClub
    Encoded date : UTC 2015-01-06 09:12:47
    Writing application : mkvmerge v5.8.0 ('No Sleep / Pillow') built on Sep 2 2012 15:37:04
    Writing library : libebml v1.2.3 + libmatroska v1.3.0
    Video
    ID : 1
    Format : AVC
    Format/Info : Advanced Video Codec
    Format profile : High@L4
    Format settings, CABAC : Yes
    Format settings, ReFrames : 3 frames
    Codec ID : V_MPEG4/ISO/AVC
    Duration : 53mn 2s
    Bit rate : 2 550 Kbps
    Width : 1 276 pixels
    Height : 716 pixels
    Display aspect ratio : 16:9
    Frame rate mode : Constant
    Frame rate : 25.000 fps
    Color space : YUV
    Chroma subsampling : 4:2:0
    Bit depth : 8 bits
    Scan type : Progressive
    Bits/(Pixel*Frame) : 0.112
    Stream size : 947 MiB (89%)
    Writing library : x264 core 142
    Encoding settings : cabac=1 / ref=4 / deblock=1:0:0 / analyse=0x3:0x133 / me=hex / subme=7 / psy=1 / psy_rd=1.00:0.00 / mixed_ref=1 / me_range=16 / chroma_me=1 / trellis=2 / 8x8dct=1 / cqm=0 / deadzone=21,11 / fast_pskip=1 / chroma_qp_offset=-2 / threads=4 / lookahead_threads=1 / sliced_threads=0 / nr=0 / decimate=1 / interlaced=0 / bluray_compat=0 / constrained_intra=0 / bframes=6 / b_pyramid=1 / b_adapt=2 / b_bias=0 / direct=3 / weightb=1 / open_gop=0 / weightp=2 / keyint=100 / keyint_min=51 / scenecut=0 / intra_refresh=0 / rc_lookahead=50 / rc=2pass / mbtree=1 / bitrate=2550 / ratetol=1.0 / qcomp=0.60 / qpmin=0 / qpmax=69 / qpstep=4 / cplxblur=20.0 / qblur=0.5 / vbv_maxrate=3316 / vbv_bufsize=3826 / nal_hrd=none / filler=0 / ip_ratio=1.40 / aq=1:1.00
    Default : Yes
    Forced : Yes
    Audio
    ID : 2
    Format : AC-3
    Format/Info : Audio Coding 3
    Mode extension : CM (complete main)
    Format settings, Endianness : Big
    Codec ID : A_AC3
    Duration : 53mn 1s
    Bit rate mode : Constant
    Bit rate : 256 Kbps
    Channel(s) : 2 channels
    Channel positions : Front: L R
    Sampling rate : 48.0 KHz
    Frame rate : 31.250 fps (1536 spf)
    Compression mode : Lossy
    Stream size : 97.1 MiB (9%)
    Language : Russian
    Default : Yes
    Forced : Yes
    -

    Скриншоты сериала


    -
    Скачать .torrent

    Скачать торрент-файл бесплатно и на максимальной скорости!

    Как скачивать? · Что такое торрент? · Рейтинг и ограничения

    !ВНИМАНИЕ!
    Сайт не распространяет и не хранит электронные версии произведений, а занимается лишь лишь предоставлением доступа к создаваемому пользователями каталогу ссылок на торрент-файлы, которые содержат только списки хеш-сумм, убедительная просьба с жалобами обращаться напрямую к пользователю. Файлы для обмена на трекере предоставлены пользователями сайта, и администрация не несёт ответственности за их содержание. Просьба не заливать файлы, защищенные авторскими правами, а также файлы нелегального содержания!


    _________________
    [Профиль] [ЛС]
    Показать сообщения:    
    Ответить на тему

    Текущее время: Сегодня, в 22:37

    Часовой пояс: GMT + 2



    Вы не можете начинать темы
    Вы не можете отвечать на сообщения
    Вы не можете редактировать свои сообщения
    Вы не можете удалять свои сообщения
    Вы не можете голосовать в опросах
    Вы не можете прикреплять файлы к сообщениям
    Вы не можете скачивать файлы