BitTorrentTracker PerecTracker.org
BitTorrentTracker PerecTracker.org
    
Регистрация  ·  Вход
 
 · 
Забыли пароль?

  • Вайнона Эрп / Wynonna Earp / Сезон: 1 / Серии: 1-13 из 13 (Рон Мерфи, Питер Стеббингс) [2016, фэнтези, боевик, триллер, вестерн, WEB-DL 1080p] DVO (Alternative Production) + Original

    Ответить на тему
     
    Автор Сообщение

    rechyn

    Создавать темы 28-Июл-2016 21:25

           

    [Цитировать]

    Вайнона Эрп / Wynonna Earp
    -Год выпуска: 2016
    Страна: США
    Жанр: фэнтези, боевик, триллер, вестерн
    Продолжительность: 00:42:00-Перевод:Профессиональный (двухголосый закадровый) Alternative Production-Режиссёр: Рон Мерфи, Питер Стеббингс
    В ролях: Мелани Скрофано, Кэтерин Баррелл, Тим Розон, Шамир Андерсон, Грег Лосон, Анна Куик, Доминик Провост-Чалкли, Кейт Драммонд, Дэвид Нэйсом и др.-Описание:
    Мистический вестерн о большой любительнице приключений. Так сложилось, что предок Вайноны был великий Уайетт Эрп, один из тех, кто покорил Дикий Запад. Как и он, девушка обожает пить виски и кутить с друзьями, но если Вайнона чует опасность, она превращается совсем в другого человека – смелую охотницу на нечисть. Никакие демоны её не страшат. Она отважно бросается в бой и отправляет все зловещие создания обратно в ад. Помогают ей в этом её верные друзья – настоящая поисковая команда. С их помощью и благодаря своему особому чутью Вайнона безошибочно определяет порождения другого мира.-Все раздачи сериала-Качество: WEB-DL 1080p
    Формат: MKV
    Видео кодек: H.264
    Аудио кодек: AC3
    Видео: H.264, 1904x1064 (16:9), 23.976 fps, 4 982 Kbps, 0.103 bit/pixel
    Аудио 1: AC3 Dolby Digital, 48 kHz, 3/2 (L,C,R,l,r) + LFE ch, 384 kbps
    Аудио 2: AC3 Dolby Digital, 48 kHz, 3/2 (L,C,R,l,r) + LFE ch, 384 kbps
    Субтитры: отсутствуют
    Релиз

    MediaInfo

    General
    Unique ID : 241668833245650141372429190733714190394 (0xB5CFB968ED08621A83667EC4B55C703A)
    Format : Matroska
    Format version : Version 4 / Version 2
    File size : 1.73 GiB
    Duration : 43mn 6s
    Overall bit rate : 5 752 Kbps
    Encoded date : UTC 2016-04-03 19:19:27
    Writing application : mkvmerge v8.3.0 ('Over the Horizon') 64bit
    Writing library : libebml v1.3.1 + libmatroska v1.4.2
    Attachments : poster.jpg
    Video
    ID : 1
    Format : AVC
    Format/Info : Advanced Video Codec
    Format profile : High@L4
    Format settings, CABAC : Yes
    Format settings, ReFrames : 4 frames
    Codec ID : V_MPEG4/ISO/AVC
    Duration : 43mn 6s
    Bit rate : 4 982 Kbps
    Width : 1 904 pixels
    Height : 1 064 pixels
    Display aspect ratio : 16:9
    Frame rate mode : Constant
    Frame rate : 23.976 (23976/1000) fps
    Color space : YUV
    Chroma subsampling : 4:2:0
    Bit depth : 8 bits
    Scan type : Progressive
    Bits/(Pixel*Frame) : 0.103
    Stream size : 1.50 GiB (87%)
    Language : English
    Default : Yes
    Forced : No
    Color range : Limited
    Color primaries : BT.709
    Transfer characteristics : BT.709
    Matrix coefficients : BT.709
    Audio #1
    ID : 2
    Format : AC-3
    Format/Info : Audio Coding 3
    Mode extension : CM (complete main)
    Format settings, Endianness : Big
    Codec ID : A_AC3
    Duration : 43mn 6s
    Bit rate mode : Constant
    Bit rate : 384 Kbps
    Channel(s) : 6 channels
    Channel positions : Front: L C R, Side: L R, LFE
    Sampling rate : 48.0 KHz
    Frame rate : 31.250 fps (1536 spf)
    Compression mode : Lossy
    Stream size : 118 MiB (7%)
    Title : Alt Pro
    Language : Russian
    Default : Yes
    Forced : No
    Audio #2
    ID : 3
    Format : AC-3
    Format/Info : Audio Coding 3
    Mode extension : CM (complete main)
    Format settings, Endianness : Big
    Codec ID : A_AC3
    Duration : 43mn 6s
    Bit rate mode : Constant
    Bit rate : 384 Kbps
    Channel(s) : 6 channels
    Channel positions : Front: L C R, Side: L R, LFE
    Sampling rate : 48.0 KHz
    Frame rate : 31.250 fps (1536 spf)
    Compression mode : Lossy
    Stream size : 118 MiB (7%)
    Language : English
    Default : No
    Forced : No

    Скриншоты

    Скачать .torrent

    Скачать торрент-файл бесплатно и на максимальной скорости!

    Как скачивать? · Что такое торрент? · Рейтинг и ограничения

    !ВНИМАНИЕ!
    Сайт не распространяет и не хранит электронные версии произведений, а занимается лишь лишь предоставлением доступа к создаваемому пользователями каталогу ссылок на торрент-файлы, которые содержат только списки хеш-сумм, убедительная просьба с жалобами обращаться напрямую к пользователю. Файлы для обмена на трекере предоставлены пользователями сайта, и администрация не несёт ответственности за их содержание. Просьба не заливать файлы, защищенные авторскими правами, а также файлы нелегального содержания!


    _________________
    [Профиль] [ЛС]
    Показать сообщения:    
    Ответить на тему

    Текущее время: Сегодня, в 18:55

    Часовой пояс: GMT + 2



    Вы не можете начинать темы
    Вы не можете отвечать на сообщения
    Вы не можете редактировать свои сообщения
    Вы не можете удалять свои сообщения
    Вы не можете голосовать в опросах
    Вы не можете прикреплять файлы к сообщениям
    Вы не можете скачивать файлы