BitTorrentTracker PerecTracker.org
BitTorrentTracker PerecTracker.org
    
Регистрация  ·  Вход
 
 · 
Забыли пароль?

  • Чужестранка / Outlander / Сезон: 2 / Серии: 1-13 из 13 (Брайан Келли, Анна Ферстер / Brian Kelly, Anna Foerster) [2016, фантастика, драма, мелодрама, WEB-DL 720p] MVO (NewStudio,FocusStudio) + Original + Subs (Rus, Eng)

    Ответить на тему
     
    Автор Сообщение

    rechyn

    Создавать темы 28-Июл-2016 21:23

           

    [Цитировать]

    --Чужестранка / Outlander---Год выпуска: 2016
    Страна: США
    Жанр: фантастика, драма, мелодрама
    Продолжительность: ~00:59:00-Перевод:
    Профессиональный (многоголосый закадровый) NewStudio
    Профессиональный (многоголосый закадровый) FocusStudio-Режиссёр: Брайан Келли, Анна Ферстер / Brian Kelly, Anna Foerster-В ролях: Каитриона Бэлфи, Сэм Юэн, Дункан Лакруа, Гари Льюис, Грэм Мак Тавиш, Тобиаш Мензес, Стивен Уолтерс, Аннет Бэдленд, Родерик Джилкисон.-Описание: Сериал рассказывает историю Клэр Рэндалл, военной медсестры из 40-х годов XX века, которая во время прогулки у легендарных шотландских каменных кругов загадочно перемещается во времени в 1743-й год. Попадая в XVIII век, Клэр оказывается в неизвестном мире, где ее жизни угрожает опасность. Девушка должна найти возможность выжить и вернуться обратно в будущее, где остался ее муж Фрэнк Рэндалл. Чтобы спастись в неизвестном и незнакомом героине прошлом, она вынуждена выйти замуж за Джейми Фрейзера, галантного шотландского воина со сложной судьбой и обезоруживающим чувством юмора.-Доп. информация:
    В релизе отсутствует реклама
    -Ссылка на предыдущие и альтернативные раздачи-Качество: WEB-DL 720pb
    Контейнер: MKV
    Видео: H.264, 1280x718 (16:9), 23,976 fps, ~4000 kbps, 0.184 bit/pixel
    Аудио # rus: AC3, 48 kHz, 6 ch, 384 kbps - NewStudio
    Аудио # rus: AC3, 48 kHz, 6 ch, 384 kbps - FucusStudio
    Аудио # eng: AC3, 48 kHz, 6 ch, 384 kbps - оригинал
    Субтитры: русские (CaptainNEMO), английские

    Релиз

    Релиз: Grandfather61
    Работа со звуком: Grandfather61
    Перевод субтитров: CaptainNEMO
    Синхронизация субтитров: Grandfather61

    Список серий

    01. Through a Glass, Darkly
    02. Not in Scotland Anymore
    03. Useful Occupations and Deceptions
    04. La Dame Blanche
    05. Untimely Resurrection
    06. Best Laid Schemes...
    07. Faith
    08. The Fox's Lair
    09. Je Suis Prest
    10. Prestonpans
    11. Vengeance Is Mine
    12. The Hail Mary
    13. Dragonfly in Amber

    MediaInfo

    General
    Unique ID : 249602466996967738290671357926563704079 (0xBBC7AFC0F852A5DABEB8F377D980ED0F)
    Complete name : G:\Films\Outlander.S02.720p.WEB-DL\Outlander.S02E01.720p.WEB-DL.2xRus.Eng.Subs.mkv
    Format : Matroska
    Format version : Version 4 / Version 2
    File size : 2.15 GiB
    Duration : 59 min
    Overall bit rate mode : Variable
    Overall bit rate : 5 214 kb/s
    Encoded date : UTC 2016-07-16 18:45:01
    Writing application : mkvmerge v9.3.1 ('Mask Machine') 64bit
    Writing library : libebml v1.3.4 + libmatroska v1.4.5
    Video
    ID : 1
    Format : AVC
    Format/Info : Advanced Video Codec
    Format profile : High@L3.1
    Format settings, CABAC : Yes
    Format settings, ReFrames : 2 frames
    Codec ID : V_MPEG4/ISO/AVC
    Duration : 59 min
    Bit rate mode : Variable
    Bit rate : 4 059 kb/s
    Maximum bit rate : 768 kb/s
    Width : 1 280 pixels
    Height : 718 pixels
    Display aspect ratio : 16:9
    Frame rate mode : Constant
    Frame rate : 23.976 (23976/1000) FPS
    Original frame rate : 25.000 FPS
    Color space : YUV
    Chroma subsampling : 4:2:0
    Bit depth : 8 bits
    Scan type : Progressive
    Bits/(Pixel*Frame) : 0.184
    Stream size : 1.67 GiB (78%)
    Language : English
    Default : Yes
    Forced : No
    Audio #1
    ID : 2
    Format : AC-3
    Format/Info : Audio Coding 3
    Mode extension : CM (complete main)
    Format settings, Endianness : Big
    Codec ID : A_AC3
    Duration : 59 min
    Bit rate mode : Constant
    Bit rate : 384 kb/s
    Channel(s) : 6 channels
    Channel positions : Front: L C R, Side: L R, LFE
    Sampling rate : 48.0 kHz
    Frame rate : 31.250 FPS (1536 spf)
    Compression mode : Lossy
    Stream size : 162 MiB (7%)
    Title : NewStudio
    Language : Russian
    Default : Yes
    Forced : No
    Audio #2
    ID : 3
    Format : AC-3
    Format/Info : Audio Coding 3
    Mode extension : CM (complete main)
    Format settings, Endianness : Big
    Codec ID : A_AC3
    Duration : 59 min
    Bit rate mode : Constant
    Bit rate : 384 kb/s
    Channel(s) : 6 channels
    Channel positions : Front: L C R, Side: L R, LFE
    Sampling rate : 48.0 kHz
    Frame rate : 31.250 FPS (1536 spf)
    Compression mode : Lossy
    Stream size : 162 MiB (7%)
    Title : FocusStudio
    Language : Russian
    Default : No
    Forced : No
    Audio #3
    ID : 4
    Format : AC-3
    Format/Info : Audio Coding 3
    Mode extension : CM (complete main)
    Format settings, Endianness : Big
    Codec ID : A_AC3
    Duration : 59 min
    Bit rate mode : Constant
    Bit rate : 384 kb/s
    Channel(s) : 6 channels
    Channel positions : Front: L C R, Side: L R, LFE
    Sampling rate : 48.0 kHz
    Frame rate : 31.250 FPS (1536 spf)
    Compression mode : Lossy
    Stream size : 162 MiB (7%)
    Title : original
    Language : English
    Default : No
    Forced : No
    Text #1
    ID : 5
    Format : UTF-8
    Codec ID : S_TEXT/UTF8
    Codec ID/Info : UTF-8 Plain Text
    Duration : 57 min
    Bit rate : 85 b/s
    Count of elements : 712
    Stream size : 36.1 KiB (0%)
    Title : rus (CaptainNEMO)
    Language : Russian
    Default : No
    Forced : No
    Text #2
    ID : 6
    Format : UTF-8
    Codec ID : S_TEXT/UTF8
    Codec ID/Info : UTF-8 Plain Text
    Duration : 57 min
    Bit rate : 52 b/s
    Count of elements : 760
    Stream size : 22.1 KiB (0%)
    Title : CC
    Language : English
    Default : No
    Forced : No

    Скриншоты

    Скачать .torrent

    Скачать торрент-файл бесплатно и на максимальной скорости!

    Как скачивать? · Что такое торрент? · Рейтинг и ограничения

    !ВНИМАНИЕ!
    Сайт не распространяет и не хранит электронные версии произведений, а занимается лишь лишь предоставлением доступа к создаваемому пользователями каталогу ссылок на торрент-файлы, которые содержат только списки хеш-сумм, убедительная просьба с жалобами обращаться напрямую к пользователю. Файлы для обмена на трекере предоставлены пользователями сайта, и администрация не несёт ответственности за их содержание. Просьба не заливать файлы, защищенные авторскими правами, а также файлы нелегального содержания!


    _________________
    [Профиль] [ЛС]
    Показать сообщения:    
    Ответить на тему

    Текущее время: Сегодня, в 02:28

    Часовой пояс: GMT + 2



    Вы не можете начинать темы
    Вы не можете отвечать на сообщения
    Вы не можете редактировать свои сообщения
    Вы не можете удалять свои сообщения
    Вы не можете голосовать в опросах
    Вы не можете прикреплять файлы к сообщениям
    Вы не можете скачивать файлы