BitTorrentTracker PerecTracker.org
BitTorrentTracker PerecTracker.org
    
Регистрация  ·  Вход
 
 · 
Забыли пароль?

  • Бэтмен: Убийственная шутка / Batman: The Killing Joke (Сэм Лью / Sam Liu) [2016, США, комикс, BDRip 1080p] MVO (GoASound) + Rus, Eng Sub

    Ответить на тему
     
    Автор Сообщение

    rechyn

    Создавать темы 28-Июл-2016 21:14

           

    [Цитировать]

    Бэтмен: Убийственная шутка / Batman: The Killing Joke--Страна: США
    Жанр: комикс
    Продолжительность: 01:15:00
    Год выпуска: 2016
    Перевод: Любительский (многоголосый закадровый) [GoASound]
    Русские субтитры: есть (песня)-Режиссёр: Сэм Лью / Sam Liu
    Описание: Плохой день....
    Он бывает у каждого человека. У каждого обычного человека.
    Но что случится, если этот день выдался не просто плохим, а ужасным?
    Может ли это свести человека с ума?
    Думаете нет?
    А вот Дядюшка Джокер попытается доказать вам обратное....-Семпл: http://multi-up.com/1111752-Качество: BDRip 1080p
    Формат: MKV
    Видео: MPEG-4 AVC, 1920x1080, 23.976 fps, ~ 6500 kbps
    Аудио (рус.): AC-3, 48кгц, 2.0, 192кбит
    Аудио (англ.): DTS, 48кгц, 6.0, 1509кбит
    Субтитры: русские(песня), английские

    Подробные технические данные

    Общее
    Уникальный идентификатор : 194393325587138885809287341375596752524 (0x923ECAECAA5DB116B479CCDA09DB6E8C)
    Полное имя : D:\Killing Joke [GoASound].mkv
    Формат : Matroska
    Версия формата : Version 4 / Version 2
    Размер файла : 4,47 Гбайт
    Продолжительность : 1 ч. 16 м.
    Общий поток : 8356 Кбит/сек
    Дата кодирования : UTC 2016-07-28 00:10:55
    Программа кодирования : mkvmerge v7.0.0 ('Where We Going') 64bit built on Jun 9 2014 15:16:27
    Библиотека кодирования : libebml v1.3.0 + libmatroska v1.4.1
    _STATISTICS_WRITING_APP : mkvmerge v7.0.0 ('Where We Going') 64bit built on Jun 9 2014 15:16:27
    _STATISTICS_WRITING_DATE_UTC : 2016-07-28 00:10:55
    _STATISTICS_TAGS : BPS DURATION NUMBER_OF_FRAMES NUMBER_OF_BYTES
    DURATION : 00:01:44.606000000
    NUMBER_OF_FRAMES : 30
    NUMBER_OF_BYTES : 1523
    Видео
    Идентификатор : 1
    Формат : AVC
    Формат/Информация : Advanced Video Codec
    Профиль формата : High@L4.1
    Параметр CABAC формата : Да
    Параметр ReFrames формата : 4 кадра
    Идентификатор кодека : V_MPEG4/ISO/AVC
    Продолжительность : 1 ч. 16 м.
    Битрейт : 6652 Кбит/сек
    Ширина : 1920 пикселей
    Высота : 1080 пикселей
    Соотношение сторон : 16:9
    Режим частоты кадров : Постоянный
    Частота кадров : 23,976 кадра/сек
    Цветовое пространство : YUV
    Субдискретизация насыщенности : 4:2:0
    Битовая глубина : 8 бит
    Тип развёртки : Прогрессивная
    Бит/(Пиксели*Кадры) : 0.134
    Размер потока : 3,47 Гбайт (78%)
    Библиотека кодирования : x264 core 148 r2692 64f4e24
    Настройки программы : cabac=1 / ref=4 / deblock=1:0:0 / analyse=0x3:0x133 / me=umh / subme=7 / psy=1 / psy_rd=1.00:0.00 / mixed_ref=1 / me_range=16 / chroma_me=1 / trellis=1 / 8x8dct=1 / cqm=0 / deadzone=21,11 / fast_pskip=0 / chroma_qp_offset=-2 / threads=18 / lookahead_threads=3 / sliced_threads=0 / nr=0 / decimate=1 / interlaced=0 / bluray_compat=0 / constrained_intra=0 / bframes=3 / b_pyramid=2 / b_adapt=1 / b_bias=0 / direct=1 / weightb=1 / open_gop=0 / weightp=2 / keyint=250 / keyint_min=23 / scenecut=40 / intra_refresh=0 / rc_lookahead=40 / rc=2pass / mbtree=1 / bitrate=6652 / ratetol=1.0 / qcomp=0.60 / qpmin=0 / qpmax=69 / qpstep=4 / cplxblur=20.0 / qblur=0.5 / ip_ratio=1.40 / aq=1:1.00
    Язык : English
    Default : Нет
    Forced : Нет
    _STATISTICS_WRITING_APP : mkvmerge v7.0.0 ('Where We Going') 64bit built on Jun 9 2014 15:16:27
    _STATISTICS_WRITING_DATE_UTC : 2016-07-28 00:10:55
    _STATISTICS_TAGS : BPS DURATION NUMBER_OF_FRAMES NUMBER_OF_BYTES
    DURATION : 01:16:39.269000000
    NUMBER_OF_FRAMES : 110272
    NUMBER_OF_BYTES : 3824712245
    Аудио #1
    Идентификатор : 2
    Формат : E-AC-3
    Формат/Информация : Audio Coding 3
    Параметр Endianness формата : Big
    Идентификатор кодека : A_EAC3
    Продолжительность : 1 ч. 16 м.
    Вид битрейта : Постоянный
    Битрейт : 192 Кбит/сек
    Каналы : 2 канала
    Расположение каналов : Front: L R
    Частота : 48,0 КГц
    Метод сжатия : С потерями
    Размер потока : 105 Мбайт (2%)
    Заголовок : MVO - GoASound
    Язык : Russian
    Default : Да
    Forced : Нет
    Аудио #2
    Идентификатор : 3
    Формат : DTS
    Формат/Информация : Digital Theater Systems
    Режим : 16
    Параметр Endianness формата : Big
    Идентификатор кодека : A_DTS
    Продолжительность : 1 ч. 16 м.
    Вид битрейта : Постоянный
    Битрейт : 1509 Кбит/сек
    Каналы : 6 каналов
    Расположение каналов : Front: L C R, Side: L R, LFE
    Частота : 48,0 КГц
    Битовая глубина : 24 бит
    Метод сжатия : С потерями
    Задержка видео : 11 мс.
    Размер потока : 827 Мбайт (18%)
    Язык : English
    Default : Нет
    Forced : Нет
    Текст #1
    Идентификатор : 4
    Формат : UTF-8
    Идентификатор кодека : S_TEXT/UTF8
    Идентификатор кодека/Информация : UTF-8 Plain Text
    Язык : Russian
    Default : Да
    Forced : Нет
    Текст #2
    Идентификатор : 5
    Формат : UTF-8
    Идентификатор кодека : S_TEXT/UTF8
    Идентификатор кодека/Информация : UTF-8 Plain Text
    Язык : English
    Default : Нет
    Forced : Нет
    Меню
    00:00:00.000 : en:00:00:00.000
    00:10:06.731 : en:00:10:06.731
    00:20:30.646 : en:00:20:30.646
    00:30:08.265 : en:00:30:08.265
    00:41:23.648 : en:00:41:23.648
    00:51:27.334 : en:00:51:27.334
    01:02:21.529 : en:01:02:21.529
    01:11:51.891 : en:01:11:51.891

    Над релизом работали

    Работа со звуком:
    Gink Freud
    Озвучка:
    Wolverrine - Джокер, и др.
    Сергей Павлов - Бэтмен, и др.
    Reina - Барбара Гордон, и др.
    Кирамбет - Джим Гордон, и др.

    Скриншоты

    Скачать .torrent

    Скачать торрент-файл бесплатно и на максимальной скорости!

    Как скачивать? · Что такое торрент? · Рейтинг и ограничения

    !ВНИМАНИЕ!
    Сайт не распространяет и не хранит электронные версии произведений, а занимается лишь лишь предоставлением доступа к создаваемому пользователями каталогу ссылок на торрент-файлы, которые содержат только списки хеш-сумм, убедительная просьба с жалобами обращаться напрямую к пользователю. Файлы для обмена на трекере предоставлены пользователями сайта, и администрация не несёт ответственности за их содержание. Просьба не заливать файлы, защищенные авторскими правами, а также файлы нелегального содержания!


    _________________
    [Профиль] [ЛС]
    Показать сообщения:    
    Ответить на тему

    Текущее время: Сегодня, в 12:02

    Часовой пояс: GMT + 2



    Вы не можете начинать темы
    Вы не можете отвечать на сообщения
    Вы не можете редактировать свои сообщения
    Вы не можете удалять свои сообщения
    Вы не можете голосовать в опросах
    Вы не можете прикреплять файлы к сообщениям
    Вы не можете скачивать файлы