Register  ·  Log in
Forgot password?

  • Angry Birds в кино / The Angry Birds Movie (Клэй Кэйтис / Clay Kaytis, Фергал Рейли / Fergal Reilly) [2016, США, Финляндия, мультфильм, комедия, семейный, HDRip] Dub (iTunes)

    Reply to topic
    Author Message


    Post 28-Jul-2016 19:06



    Angry Birds в кино / The Angry Birds Movie
    Страна: США, Финляндия
    Жанр: мультфильм, комедия, семейный
    Год выпуска: 2016
    Продолжительность: 01:37:14
    Перевод: Профессиональный (дублированный) iTunes
    Cубтитры: нет
    Оригинальная аудиодорожка: нет-Режиссер: Клэй Кэйтис / Clay Kaytis, Фергал Рейли / Fergal Reilly-Роли озвучивали: Джейсон Судейкис, Джош Гад, Дэнни МакБрайд, Майя Рудольф, Билл Хейдер, Питер Динклэйдж, Шон Пенн, Кигэн-Майкл Ки, Кейт МакКиннон, Тони Хейл-Описание: Фильм расскажет о том, как началось знаменитое противостояние птичек и свинок, персонажей популярной компьютерной игры, а также раскроет некоторые секреты любимых героев.-Качество видео: HDRip | Angry Birds (2016) BDRip 1080p -BLUEBIRD
    Формат видео: AVI
    Видео: 688x368 (1.87:1), 23.976 fps, XviD build 73 ~940 kbps avg, 0.16 bit/pixel
    Аудио: 48 kHz, MPEG Layer 3, 2 ch, ~128.00 kbps avg-Скачать сэмпл


    Format                      : AVI
    Format/Info                 : Audio Video Interleave
    File size                   : 749 MiB
    Duration                    : 1h 37mn
    Overall bit rate            : 1 078 Kbps
    Writing application         : VirtualDubMod | || (build 2550/release)
    Writing library             : VirtualDubMod build 2550/release
    ID                          : 0
    Format                      : MPEG-4 Visual
    Format profile              : Advanced Simple@L5
    Format settings, BVOP       : 1
    Format settings, QPel       : No
    Format settings, GMC        : No warppoints
    Format settings, Matrix     : Custom
    Codec ID                    : XVID
    Codec ID/Hint               : XviD
    Duration                    : 1h 37mn
    Bit rate                    : 940 Kbps
    Width                       : 688 pixels
    Height                      : 368 pixels
    Display aspect ratio        : 1.85:1
    Frame rate                  : 23.976 (23976/1000) fps
    Color space                 : YUV
    Chroma subsampling          : 4:2:0
    Bit depth                   : 8 bits
    Scan type                   : Progressive
    Compression mode            : Lossy
    Bits/(Pixel*Frame)          : 0.155
    Stream size                 : 654 MiB (87%)
    Writing library             : XviD 73
    ID                          : 1
    Format                      : MPEG Audio
    Format version              : Version 1
    Format profile              : Layer 3
    Codec ID                    : 55
    Codec ID/Hint               : MP3
    Duration                    : 1h 37mn
    Bit rate mode               : Constant
    Bit rate                    : 128 Kbps
    Channel(s)                  : 2 channels
    Sampling rate               : 48.0 KHz
    Compression mode            : Lossy
    Stream size                 : 89.0 MiB (12%)
    Alignment                   : Aligned on interleaves
    Interleave, duration        : 42 ms (1.00 video frame)
    Interleave, preload duratio : 504 ms
    Writing library             : LAME3.99r
    Encoding settings           : -m s -V 4 -q 2 -lowpass 17 -b 128


    Download .torrent

    Download free and at maximum speed!

    How to Download? · What is a torrent? · Ratings and Limitations

    The site does not extend and does not store electronic(digital) versions of products, and only gives access to a reference catalogue created by users on torrent-files which contain only lists of the hash-sums, the earnest entreaty, with complaints(abuse) to access directly to the user. Files for an exchange on tracker are given by users of a site, and the administration does not bear the responsibility for their maintenance. The request to not fill in the files protected by copyrights, and also files of the illegal maintenance!

    [Profile] [PM]
    Display posts from previous:    
    Reply to topic

    The time now is: Today 15:02

    All times are GMT + 3 Hours

    You cannot post new topics in this forum
    You cannot reply to topics in this forum
    You cannot edit your posts in this forum
    You cannot delete your posts in this forum
    You cannot vote in polls in this forum
    You cannot attach files in this forum
    You cannot download files in this forum