BitTorrentTracker PerecTracker.org
BitTorrentTracker PerecTracker.org
    
Регистрация  ·  Вход
 
 · 
Забыли пароль?

  • Братья ветра / Brothers of the Wind (Херардо Оливарес, Отмар Пенкер / Gerardo Olivares, Otmar Penker) [2015, Австрия, Приключения, драма, семейный, HDRip] MVO (GreenРай Studio)

    Ответить на тему
     
    Автор Сообщение

    Light

    Создавать темы 28-Июл-2016 13:54

           

    [Цитировать]

    Братья ветра / Brothers of the Wind
    Страна: Австрия
    Жанр: Приключения, драма, семейный
    Год выпуска: 2015
    Продолжительность: 01:37:56
    Перевод: Любительский (многоголосый закадровый) GreenРай Studio
    Cубтитры: нет
    Режиссер: Херардо Оливарес, Отмар Пенкер / Gerardo Olivares, Otmar Penker
    В ролях: Жан Рено, Мануэль Камачо, Тобиас Моретти, Эва Куэн
    Описание: Главный герой живет в горной местности, мальчик по имени Лукас (Мануэль Камачо), который находит в лесу раненного птенца орла. Он решает излечить сломанные крылья орла и научить жить в пустыне. Задача очень трудная, потому что отец мальчика не одобряет его планы, и орел сначала очень настороженно относится к нему. Однако, со временем отношения Лукаса с диким животным превращается в необыкновенную дружбу и приводит к увлекательным приключениям. Лукасу большую поддержку оказывает таинственный Данзер (Жан Рено), который как никто знает привычки диких животных и открывает мальчику их необычный мир...
    Сэмпл: http://multi-up.com/1111666
    Релиз от Megapeer
    Качество видео: HDRip (Исх. BDRip 720p)
    Формат видео: AVI
    Видео: 656x352 (1.86:1), 23.976 fps, XviD build 73 ~934 kbps avg, 0.17 bit/pixel
    Аудио: 48 kHz, MPEG Layer 3, 2 ch, ~128.00 kbps avg - GreenРай Studio

    MediaInfo

    ОбщееПолное имя : D:\загрузки\Brothers.of.the.Wind.2015.L.745MB.aviФормат : AVIФормат/Информация : Audio Video InterleaveРазмер файла : 748 МбайтПродолжительность : 1 ч. 37 м.Общий поток : 1068 Кбит/сек
    ВидеоИдентификатор : 0Формат : MPEG-4 VisualПрофиль формата : Advanced Simple@L5Параметр BVOP формата : 1Параметр QPel формата : НетПараметр GMC формата : Без точки переходаПараметр матрицы формата : ВыборочнаяИдентификатор кодека : XVIDИдентификатор кодека/Подсказка : XviDПродолжительность : 1 ч. 37 м.Битрейт : 934 Кбит/секШирина : 656 пикселейВысота : 352 пикселяСоотношение сторон : 1,85:1Частота кадров : 23,976 (24000/1001) кадра/секЦветовое пространство : YUVСубдискретизация насыщенности : 4:2:0Битовая глубина : 8 битТип развёртки : ПрогрессивнаяМетод сжатия : С потерямиБит/(Пиксели*Кадры) : 0.169Размер потока : 654 Мбайт (87%)Библиотека кодирования : XviD 73
    АудиоИдентификатор : 1Формат : MPEG AudioВерсия формата : Version 1Профиль формата : Layer 3Режим : Joint stereoРасширение режима : MS StereoИдентификатор кодека : 55Идентификатор кодека/Подсказка : MP3Продолжительность : 1 ч. 37 м.Вид битрейта : ПостоянныйБитрейт : 128 Кбит/секКаналы : 2 каналаЧастота : 48,0 КГцМетод сжатия : С потерямиРазмер потока : 89,7 Мбайт (12%)Выравнивание : Соединение по промежуткамПродолжительность промежутка : 167 мс. (4,00 видеокадра)Время предзагрузки промежутка : 216 мс.Заголовок : GreenРай StudioБиблиотека кодирования : LAME3.99rНастройки программы : -m j -V 4 -q 2 -lowpass 17 -b 128

    Скриншоты

    Скачать .torrent

    Скачать торрент-файл бесплатно и на максимальной скорости!

    Как скачивать? · Что такое торрент? · Рейтинг и ограничения

    !ВНИМАНИЕ!
    Сайт не распространяет и не хранит электронные версии произведений, а занимается лишь лишь предоставлением доступа к создаваемому пользователями каталогу ссылок на торрент-файлы, которые содержат только списки хеш-сумм, убедительная просьба с жалобами обращаться напрямую к пользователю. Файлы для обмена на трекере предоставлены пользователями сайта, и администрация не несёт ответственности за их содержание. Просьба не заливать файлы, защищенные авторскими правами, а также файлы нелегального содержания!


    _________________
    [Профиль] [ЛС]
    Показать сообщения:    
    Ответить на тему

    Текущее время: Сегодня, в 10:51

    Часовой пояс: GMT + 2



    Вы не можете начинать темы
    Вы не можете отвечать на сообщения
    Вы не можете редактировать свои сообщения
    Вы не можете удалять свои сообщения
    Вы не можете голосовать в опросах
    Вы не можете прикреплять файлы к сообщениям
    Вы не можете скачивать файлы