BitTorrentTracker PerecTracker.org
BitTorrentTracker PerecTracker.org
    
Регистрация  ·  Вход
 
 · 
Забыли пароль?

  • Славные парни / The Nice Guys (Шейн Блэк / Shane Black) [2016, США, Великобритания, Криминал, комедия, WEB-DLRip] Dub (iTunes)

    Ответить на тему
     
    Автор Сообщение

    rechyn

    Создавать темы 28-Июл-2016 09:42

           

    [Цитировать]

    Славные парни / The Nice Guys
    Страна: США, Великобритания
    Жанр: Криминал, комедия
    Год выпуска: 2016
    Продолжительность: 01:51:03
    Перевод: Профессиональный (дублированный) iTunes
    Cубтитры: нет
    Режиссер: Шейн Блэк / Shane Black
    В ролях: Райан Гослинг, Ким Бейсингер, Расселл Кроу, Энгаури Райс, Мэтт Бомер, Маргарет Куэлли, Йайа ДаКоста, Кит Дэвид, Бо Напп, Лоис Смит
    Описание: Что может объединять два совершенно разных человека - частного сыщика Марчи Холланда, и наёмного вышибалу Хили Джексона? Лос-Анджелес 1970 год, два кажется несвязанных между собой дела, которые взялись расследовать эти два разных по профессиям человека, пропажа девушки, и смерть порнозвезды. В ходе расследования, нити этих дел приведут к шокирующему результату, о заговоре в высших эшелонов власти.
    Сэмпл: http://multi-up.com/1111733
    Релиз от Megapeer
    Качество видео: WEB-DLRip
    Формат видео: AVI
    Видео: 656x272 (2.41:1), 25 fps, XviD build 73 ~805 kbps avg, 0.21 bit/pixel
    Аудио: MP3, 2 ch, 128 kbps, 48 КГц

    MediaInfo

    ОбщееПолное имя : D:\The.Nice.Guys.2016.WEB-DLRip.745MB.aviФормат : AVIФормат/Информация : Audio Video InterleaveРазмер файла : 746 МбайтПродолжительность : 1 ч. 51 м.Общий поток : 939 Кбит/сек
    ВидеоИдентификатор : 0Формат : MPEG-4 VisualПрофиль формата : Advanced Simple@L5Параметр BVOP формата : 1Параметр QPel формата : НетПараметр GMC формата : Без точки переходаПараметр матрицы формата : ВыборочнаяИдентификатор кодека : XVIDИдентификатор кодека/Подсказка : XviDПродолжительность : 1 ч. 51 м.Битрейт : 805 Кбит/секШирина : 656 пикселейВысота : 272 пикселяСоотношение сторон : 2,40:1Частота кадров : 25,000 кадров/секЦветовое пространство : YUVСубдискретизация насыщенности : 4:2:0Битовая глубина : 8 битТип развёртки : ПрогрессивнаяМетод сжатия : С потерямиБит/(Пиксели*Кадры) : 0.180Размер потока : 639 Мбайт (86%)Библиотека кодирования : XviD 73
    АудиоИдентификатор : 1Формат : MPEG AudioВерсия формата : Version 1Профиль формата : Layer 3Режим : Joint stereoРасширение режима : MS StereoИдентификатор кодека : 55Идентификатор кодека/Подсказка : MP3Продолжительность : 1 ч. 51 м.Вид битрейта : ПостоянныйБитрейт : 128 Кбит/секКаналы : 2 каналаЧастота : 48,0 КГцМетод сжатия : С потерямиРазмер потока : 102 Мбайт (14%)Выравнивание : Соединение по промежуткамПродолжительность промежутка : 160 мс. (4,00 видеокадра)Время предзагрузки промежутка : 216 мс.Заголовок : iTunesБиблиотека кодирования : LAME3.99rНастройки программы : -m j -V 4 -q 2 -lowpass 17 -b 128

    Скриншоты

    Скачать .torrent

    Скачать торрент-файл бесплатно и на максимальной скорости!

    Как скачивать? · Что такое торрент? · Рейтинг и ограничения

    !ВНИМАНИЕ!
    Сайт не распространяет и не хранит электронные версии произведений, а занимается лишь лишь предоставлением доступа к создаваемому пользователями каталогу ссылок на торрент-файлы, которые содержат только списки хеш-сумм, убедительная просьба с жалобами обращаться напрямую к пользователю. Файлы для обмена на трекере предоставлены пользователями сайта, и администрация не несёт ответственности за их содержание. Просьба не заливать файлы, защищенные авторскими правами, а также файлы нелегального содержания!


    _________________
    [Профиль] [ЛС]
    Показать сообщения:    
    Ответить на тему

    Текущее время: Сегодня, в 18:36

    Часовой пояс: GMT + 2



    Вы не можете начинать темы
    Вы не можете отвечать на сообщения
    Вы не можете редактировать свои сообщения
    Вы не можете удалять свои сообщения
    Вы не можете голосовать в опросах
    Вы не можете прикреплять файлы к сообщениям
    Вы не можете скачивать файлы