BitTorrentTracker PerecTracker.org
BitTorrentTracker PerecTracker.org
    
Регистрация  ·  Вход
 
 · 
Забыли пароль?

  • Манхэттенская ночь / Manhattan Night (Брайан ДеКьюбелис / Brian DeCubellis) [2016, США, Триллер, драма, криминал, HDRip] MVO (Parovoz Production)

    Ответить на тему
     
    Автор Сообщение

    rechyn

    Создавать темы 27-Июл-2016 21:08

           

    [Цитировать]

    Манхэттенская ночь / Manhattan Night
    Страна: США
    Жанр: Триллер, драма, криминал
    Год выпуска: 2016
    Продолжительность: 01:53:56
    Перевод: Любительский (многоголосый закадровый) Parovoz Production
    Cубтитры: нет
    Режиссер: Брайан ДеКьюбелис / Brian DeCubellis
    В ролях: Ивонн Страховски, Эдриан Броуди, Дженнифер Билз, Кэмпбелл Скотт, Стивен Беркофф, Линда Лавин, Кевин Брезнахан, Амели МакКендри, Томас Баир, Мэдисон Элизабет Лахарес
    Описание: Журналист Портер Рен вовлечен в профессиональное расследование. Незнакомая сексапильная дамочка обращается к нему с просьбой найти ответы в убийстве ее мужа. В действии будут кипеть страсти на грани одержимости, а также шантаж, риск потерять работу, статус семьянина и собственно жизнь…
    Сэмпл: https://yadi.sk/i/cP8YAXaWtbGb7
    Качество видео: HDRip
    Формат видео: AVI
    Видео: XviD 73, 656x272, (2,35:1), 23,976 fps, 781 Кбит/с, 8 бит
    Аудио: Русский (МР3, 2 ch, 48,0 KHz, 128 Kbps)

    MediaInfo

    Общее
    Полное имя : F:\Видеофильмы\В и д е о\Манхэттенская ночь (триллер драма 2016г).avi
    Формат : AVI
    Формат/Информация : Audio Video Interleave
    Размер файла : 746 Мбайт
    Продолжительность : 1 ч. 53 м.
    Общий поток : 915 Кбит/сек
    Видео
    Идентификатор : 0
    Формат : MPEG-4 Visual
    Профиль формата : Advanced Simple@L5
    Параметр BVOP формата : 1
    Параметр QPel формата : Нет
    Параметр GMC формата : Без точки перехода
    Параметр матрицы формата : Выборочная
    Идентификатор кодека : XVID
    Идентификатор кодека/Подсказка : XviD
    Продолжительность : 1 ч. 53 м.
    Битрейт : 781 Кбит/сек
    Ширина : 656 пикселей
    Высота : 272 пикселя
    Соотношение сторон : 2,35:1
    Частота кадров : 23,976 (24000/1001) кадра/сек
    Цветовое пространство : YUV
    Субдискретизация насыщенности : 4:2:0
    Битовая глубина : 8 бит
    Тип развёртки : Прогрессивная
    Метод сжатия : С потерями
    Бит/(Пиксели*Кадры) : 0.183
    Размер потока : 637 Мбайт (85%)
    Библиотека кодирования : XviD 73
    Аудио
    Идентификатор : 1
    Формат : MPEG Audio
    Версия формата : Version 1
    Профиль формата : Layer 3
    Режим : Joint stereo
    Идентификатор кодека : 55
    Идентификатор кодека/Подсказка : MP3
    Продолжительность : 1 ч. 53 м.
    Вид битрейта : Постоянный
    Битрейт : 128 Кбит/сек
    Каналы : 2 канала
    Частота : 48,0 КГц
    Метод сжатия : С потерями
    Размер потока : 104 Мбайт (14%)
    Выравнивание : Соединение по промежуткам
    Продолжительность промежутка : 167 мс. (4,00 видеокадра)
    Время предзагрузки промежутка : 216 мс.
    Заголовок : SPD
    Библиотека кодирования : LAME3.99r
    Настройки программы : -m j -V 4 -q 2 -lowpass 17 -b 128

    Скриншот c названием фильма

    Скриншоты

    Скачать .torrent

    Скачать торрент-файл бесплатно и на максимальной скорости!

    Как скачивать? · Что такое торрент? · Рейтинг и ограничения

    !ВНИМАНИЕ!
    Сайт не распространяет и не хранит электронные версии произведений, а занимается лишь лишь предоставлением доступа к создаваемому пользователями каталогу ссылок на торрент-файлы, которые содержат только списки хеш-сумм, убедительная просьба с жалобами обращаться напрямую к пользователю. Файлы для обмена на трекере предоставлены пользователями сайта, и администрация не несёт ответственности за их содержание. Просьба не заливать файлы, защищенные авторскими правами, а также файлы нелегального содержания!


    _________________
    [Профиль] [ЛС]
    Показать сообщения:    
    Ответить на тему

    Текущее время: Сегодня, в 20:25

    Часовой пояс: GMT + 2



    Вы не можете начинать темы
    Вы не можете отвечать на сообщения
    Вы не можете редактировать свои сообщения
    Вы не можете удалять свои сообщения
    Вы не можете голосовать в опросах
    Вы не можете прикреплять файлы к сообщениям
    Вы не можете скачивать файлы