BitTorrentTracker PerecTracker.org
BitTorrentTracker PerecTracker.org
    
Регистрация  ·  Вход
 
 · 
Забыли пароль?

  • Расплата / Rasplata (Музафар Иркинов / Muzafar Irkinov) [2015, Казахстан, Драма, криминал, WEBRip]

    Ответить на тему
     
    Автор Сообщение

    Light

    Создавать темы 27-Июл-2016 21:08

           

    [Цитировать]

    Расплата / Rasplata
    Страна: Казахстан
    Жанр: Драма, криминал
    Год выпуска: 2015
    Продолжительность: 01:28:47
    Перевод: Не требуется
    Cубтитры: нет
    Режиссер: Музафар Иркинов / Muzafar Irkinov
    В ролях: Мукагали Абишеев, Азрет Калибеков, Торебек Уринов, Сансызбай Бекболатов, Мурат Ражапов, Шахмардан Камбаров, Исламбек Жумагали, Амина Байбен, Злиха Абдихаликова, Айхан Абдирова
    Описание: Фильм начинается с трагедии в одной семье, когда на глазах ребенка преступник убивает его отца и мать. Дальше события развиваются в наши дни. Парень Серик закончив учебу, пришел работать в полицейский департамент. Их опер группа расследуя убийство, выходит на банду картежников.
    Сэмпл: http://multi-up.com/1111455
    Качество видео: WEBRip (Исходник WEBRip 720р)
    Формат видео: AVI
    Видео: XviD, 688x288, (2,40:1), 23,976 fps, 1036 Кбит/сек, 8 бит
    Аудио: Русский (MP3, 2 ch, 48,0 KHz, 128 Kbps)

    MediaInfo

    Общее
    Полное имя : F:\Видеофильмы\В и д е о\Расплата (боевик криминал 2015г).avi
    Формат : AVI
    Формат/Информация : Audio Video Interleave
    Размер файла : 745 Мбайт
    Продолжительность : 1 ч. 28 м.
    Общий поток : 1173 Кбит/сек
    Программа кодирования : VirtualDubMod 1.5.10.2 (build 2540/release)
    Библиотека кодирования : VirtualDubMod build 2540/release
    Видео
    Идентификатор : 0
    Формат : MPEG-4 Visual
    Профиль формата : Advanced Simple@L5
    Параметр BVOP формата : 2
    Параметр QPel формата : Нет
    Параметр GMC формата : Без точки перехода
    Параметр матрицы формата : Выборочная
    Идентификатор кодека : XVID
    Идентификатор кодека/Подсказка : XviD
    Продолжительность : 1 ч. 28 м.
    Битрейт : 1036 Кбит/сек
    Ширина : 688 пикселей
    Высота : 288 пикселей
    Соотношение сторон : 2,40:1
    Частота кадров : 23,976 (23976/1000) кадра/сек
    Цветовое пространство : YUV
    Субдискретизация насыщенности : 4:2:0
    Битовая глубина : 8 бит
    Тип развёртки : Прогрессивная
    Метод сжатия : С потерями
    Бит/(Пиксели*Кадры) : 0.218
    Размер потока : 658 Мбайт (88%)
    Библиотека кодирования : XviD 1.2.0.dev47 (UTC 2006-11-01)
    Аудио
    Идентификатор : 1
    Формат : MPEG Audio
    Версия формата : Version 1
    Профиль формата : Layer 3
    Идентификатор кодека : 55
    Идентификатор кодека/Подсказка : MP3
    Продолжительность : 1 ч. 28 м.
    Вид битрейта : Постоянный
    Битрейт : 128 Кбит/сек
    Каналы : 2 канала
    Частота : 48,0 КГц
    Метод сжатия : С потерями
    Размер потока : 81,3 Мбайт (11%)
    Выравнивание : Соединение по промежуткам
    Продолжительность промежутка : 42 мс. (1,00 видеокадр)
    Время предзагрузки промежутка : 504 мс.
    Библиотека кодирования : LAME3.97
    Настройки программы : -m s -V 4 -q 2 -lowpass 17 -b 128

    Скриншот c названием фильма

    Скриншоты

    Скачать .torrent

    Скачать торрент-файл бесплатно и на максимальной скорости!

    Как скачивать? · Что такое торрент? · Рейтинг и ограничения

    !ВНИМАНИЕ!
    Сайт не распространяет и не хранит электронные версии произведений, а занимается лишь лишь предоставлением доступа к создаваемому пользователями каталогу ссылок на торрент-файлы, которые содержат только списки хеш-сумм, убедительная просьба с жалобами обращаться напрямую к пользователю. Файлы для обмена на трекере предоставлены пользователями сайта, и администрация не несёт ответственности за их содержание. Просьба не заливать файлы, защищенные авторскими правами, а также файлы нелегального содержания!


    _________________
    [Профиль] [ЛС]
    Показать сообщения:    
    Ответить на тему

    Текущее время: Сегодня, в 06:54

    Часовой пояс: GMT + 2



    Вы не можете начинать темы
    Вы не можете отвечать на сообщения
    Вы не можете редактировать свои сообщения
    Вы не можете удалять свои сообщения
    Вы не можете голосовать в опросах
    Вы не можете прикреплять файлы к сообщениям
    Вы не можете скачивать файлы