BitTorrentTracker PerecTracker.org
BitTorrentTracker PerecTracker.org
    
Регистрация  ·  Вход
 
 · 
Забыли пароль?

  • Маргарита / Marguerite (Ксавье Джанноли / Xavier Giannoli) [2015, Франция, Чехия, Бельгия, Драма, HDRip] MVO (iTunes) + Original + Subs (rus,eng)

    Ответить на тему
     
    Автор Сообщение

    Light

    Создавать темы 27-Июл-2016 21:08

           

    [Цитировать]

    Маргарита / Marguerite
    Слоган: «Cover your ears and open your heart»
    Страна: Франция, Чехия, Бельгия
    Жанр: драма
    Год выпуска: 2015
    Продолжительность: 02:08:39
    Перевод: Профессиональный (многоголосый закадровый) - (iTunes)
    Cубтитры: Русские, английские (полные)
    Оригинальная аудиодорожка: Французский
    Режиссер: Ксавье Джанноли / Xavier Giannoli
    В ролях: Катрин Фро, Андре Маркон, Мишель Фо, Криста Тере, Сильвен Дьюэд, Обер Фенуй, София Лебутт, Тео Чолби, Астрид Ветналл
    Описание: Париж 20-х годов. Каждый год любители музыки собираются в замке Маргариты Дюмон. Никто почти ничего не знает об этой женщине за исключением того, что она богата и что в ее жизни одна страсть: музыка. Маргарита поет. Она поет искренне, но очень фальшиво. Ей никто никогда не говорил о том, что её пение ужасно. Муж, родственники и друзья поддерживают Маргариту, и она продолжает жить в иллюзии. Все осложняется в тот день, когда Маргарита, окончательно уверовав в свой талант певицы, решает выступить в Опере…
    Сэмпл: http://multi-up.com/1111542
    Качество видео: HDRip
    Исходник: [Marguerite.2015.MVO.BDRip.1080p.selezen]
    Формат видео: AVI
    Видео: 720x304 (2.37:1), 23.976 fps, XviD build 65 ~2002 kbps avg, 0.38 bit/pixel
    Аудио RUS: 48 kHz, AC3 Dolby Digital, 3/2 (L,C,R,l,r) + LFE ch, ~384 kbps
    Аудио FRE: 48 kHz, AC3 Dolby Digital, 3/2 (L,C,R,l,r) + LFE ch, ~448 kbps - отдельным файлом
    Формат субтитров: softsub (SRT)

    Rip by Ториял для

    MediaInfo

    Format : AVI
    Format/Info : Audio Video Interleave
    Format profile : OpenDML
    File size : 2.15 GiB
    Duration : 2h 8mn
    Overall bit rate : 2 393 Kbps
    Writing application : VirtualDubMod 1.5.10.3 | www.virtualdub-fr.org || (build 2550/release)
    Writing library : VirtualDubMod build 2550/release
    Video
    ID : 0
    Format : MPEG-4 Visual
    Format profile : Advanced Simple@L5
    Format settings, BVOP : 1
    Format settings, QPel : No
    Format settings, GMC : No warppoints
    Format settings, Matrix : Custom
    Codec ID : XVID
    Codec ID/Hint : XviD
    Duration : 2h 8mn
    Bit rate : 1 998 Kbps
    Width : 720 pixels
    Height : 304 pixels
    Display aspect ratio : 2.35:1
    Frame rate : 23.976 (23976/1000) fps
    Color space : YUV
    Chroma subsampling : 4:2:0
    Bit depth : 8 bits
    Scan type : Progressive
    Compression mode : Lossy
    Bits/(Pixel*Frame) : 0.381
    Stream size : 1.80 GiB (83%)
    Writing library : XviD 65
    Audio
    ID : 1
    Format : AC-3
    Format/Info : Audio Coding 3
    Mode extension : CM (complete main)
    Format settings, Endianness : Big
    Codec ID : 2000
    Duration : 2h 8mn
    Bit rate mode : Constant
    Bit rate : 384 Kbps
    Channel(s) : 6 channels
    Channel positions : Front: L C R, Side: L R, LFE
    Sampling rate : 48.0 KHz
    Frame rate : 31.250 fps (1536 spf)
    Compression mode : Lossy
    Stream size : 353 MiB (16%)
    Alignment : Split accross interleaves
    Interleave, duration : 42 ms (1.00 video frame)
    Interleave, preload duratio : 500 ms

    Скриншоты

    Скачать .torrent

    Скачать торрент-файл бесплатно и на максимальной скорости!

    Как скачивать? · Что такое торрент? · Рейтинг и ограничения

    !ВНИМАНИЕ!
    Сайт не распространяет и не хранит электронные версии произведений, а занимается лишь лишь предоставлением доступа к создаваемому пользователями каталогу ссылок на торрент-файлы, которые содержат только списки хеш-сумм, убедительная просьба с жалобами обращаться напрямую к пользователю. Файлы для обмена на трекере предоставлены пользователями сайта, и администрация не несёт ответственности за их содержание. Просьба не заливать файлы, защищенные авторскими правами, а также файлы нелегального содержания!


    _________________
    [Профиль] [ЛС]
    Показать сообщения:    
    Ответить на тему

    Текущее время: Сегодня, в 01:48

    Часовой пояс: GMT + 2



    Вы не можете начинать темы
    Вы не можете отвечать на сообщения
    Вы не можете редактировать свои сообщения
    Вы не можете удалять свои сообщения
    Вы не можете голосовать в опросах
    Вы не можете прикреплять файлы к сообщениям
    Вы не можете скачивать файлы