BitTorrentTracker PerecTracker.org
BitTorrentTracker PerecTracker.org
    
Регистрация  ·  Вход
 
 · 
Забыли пароль?

  • Путешествие 2: Таинственный остров в 3Д / Journey 2: The Mysterious Island 3D (Брэд Пейтон / Brad Peyton) [2012, Фантастика, Приключения, Комедия, Семейный, BDRip-AVC] Half OverUnder / Вертикальная анаморфная стереопара [Лицензия]

    Ответить на тему
     
    Автор Сообщение

    rechyn

    Создавать темы 16-Мар-2014 17:43

           

    [Цитировать]

    --Путешествие 2: Таинственный остров
    Journey 2: The Mysterious Island

    Год выпуска: 2012
    Страна: США (Warner Bros. Pictures, New Line Cinema, Walden Media)
    Жанр: Фантастика, Приключения, Комедия, Семейный
    Продолжительность: 01:34:09
    Перевод: Профессиональный (дублированный) - Русский [Лицензия]; Украинский [Лицензия]
    Русские субтитры: есть
    Режиссер: Брэд Пейтон / Brad Peyton
    Сценарий: Брайан Ганн, Марк Ганн, Ричард Ауттен
    Продюсер: Бо Флинн, Шарлотта Клэй Хаггинс, Трип Винсон-Роли исполняли / дублировали:Хэнк - Дуэйн Джонсон / Юрий Брежнев
    Шон - Джош Хатчерсон
    Кайлани - Ванесса Энн Хадженс / Мария Иващенко
    Дедушка Александр - Майкл Кейн / Василий Бочкарев
    Габато - Луис Гузман / Константин Карасик
    Лиз - Кристин Дэвис / Ольга Голованова
    Джессика - Анна Колвелл
    Коп - Стивен Кодилл
    Гид - Брэнском Ричмонд
    Маркус - Майкл Бисли-Описание: На этот раз Шон Андерсон получает закодированный сигнал с просьбой о помощи, причем с загадочного острова, из места, где никакого острова и быть не может. Там обитают странные формы жизни, скрываются горы золота, смертоносные вулканы и не одна ошеломляющая тайна. Отчиму Шона, не сумевшему остановить его, ничего не остается, как тоже присоединиться к поискам. Вместе с пилотом вертолета и его прекрасной и решительной дочерью им предстоит найти остров, спасти его одинокого обитателя и немедленно покинуть это место, прежде чем землетрясение скроет остров под водой и похоронит навеки его сокровища.--
    Бюджет: $79 000 000
    Сборы в США: $103 860 290
    Сборы в мире: + $231 400 000 = $335 260 290 сборы
    Сборы в России: $17 588 757
    Зрители США: 13.1 млн, Китай 8.7 млн, Мексика 3.3 млн
    Премьера (мир): 19 января 2012
    Премьера (РФ): 9 февраля 2012, «Каро-Премьер» 3D
    Релиз на Blu-Ray: 28 мая 2012, «CP Дистрибуция»
    Релиз на DVD: 28 мая 2012, «CP Дистрибуция»
    Рейтинг MPAA: PG - рекомендуется присутствие родителей
    Возраст: 0+ - для любой зрительской аудитории

    Проверено на встроенном плейере ТВ Samsung UE-C7000--Качество: BDRip
    Контейнер: MKV
    Формат 3D: Half OverUnder / Вертикальная анаморфная стереопара
    Порядок ракурсов: левый ракурс первый
    Видео кодек: x264
    Аудио кодек: AC3-Видео: AVC / 23,976 fps / 1920х1080p / 18.1 Mbps
    Аудио
    Аудио 1: Русский / AC3 / 48 KHz / 5.1 ch / 640 Kbps (лицензия)
    Аудио 2: Украинский / AC3 / 48 KHz / 5.1 ch / 640 Kbps (лицензия)
    Аудио 3: Английский / AC3 / 48 KHz / 5.1 ch / 640 Kbps
    Субтитры SRT
    Внешние:
    Субтитры 1 - Русские Форсированные (включены по умолчанию)
    Субтитры 2 - Украинские Форсированные
    Вшитые softsub:
    Субтитры 1 - Русские Форсированные (включены по умолчанию)
    Субтитры 2 - Русские Полные
    Субтитры 3 - Украинские Форсированные
    Субтитры 4 - Украинские Полные
    Субтитры 5 - English Full
    Субтитры 6 - English SDH

    MediaInfo

    General
    UniqueID : 244398177516164598614425903822345886750 (0xB7DD6078CBD8A0E0BC40A31F9F005C1E)
    Complete name : F:\Downloads\Journey2.TheMysteriousIsland(3D)2012.halfOU(Ash61)\Journey2.TheMysteriousIsland(3D)2012.halfOU(Ash61).mkv
    Format : Matroska
    File size : 13.5 GiB
    Duration : 1h 34mn
    Overall bit rate : 20.5 Mbps
    Movie name : Journey 2: The Mysterious Island (3D) 2012 (Ash61)
    Encoded date : UTC 2012-05-23 22:06:16
    Writing application : mkvmerge v3.4.0 ('Rapunzel') сборка от May 15 2010 09:38:20
    Writing library : libebml v0.8.0 + libmatroska v0.9.0
    Video
    ID : 1
    Format : AVC
    Format/Info : Advanced Video Codec
    Format profile : High@L4.1
    Format settings, CABAC : Yes
    Format settings, ReFrames : 4 frames
    Codec ID : V_MPEG4/ISO/AVC
    Duration : 1h 34mn
    Bit rate : 18.1 Mbps
    Width : 1 920 pixels
    Height : 1 080 pixels
    Display aspect ratio : 16:9
    Frame rate : 23.976 fps
    Color space : YUV
    Chroma subsampling : 4:2:0
    Bit depth : 8 bits
    Scan type : Progressive
    Bits/(Pixel*Frame) : 0.365
    Stream size : 11.9 GiB (89%)
    Title : BDrip by Ash61
    Writing library : x264 core 119 r2106 07efeb4
    Encoding settings : cabac=1 / ref=4 / deblock=1:-3:-3 / analyse=0x3:0x113 / me=umh / subme=9 / psy=1 / psy_rd=1.00:0.15 / mixed_ref=1 / me_range=16 / chroma_me=1 / trellis=2 / 8x8dct=1 / cqm=0 / deadzone=21,11 / fast_pskip=1 / chroma_qp_offset=-3 / threads=3 / sliced_threads=0 / nr=0 / decimate=1 / interlaced=0 / bluray_compat=0 / constrained_intra=0 / bframes=6 / b_pyramid=2 / b_adapt=2 / b_bias=0 / direct=3 / weightb=1 / open_gop=0 / weightp=2 / keyint=250 / keyint_min=23 / scenecut=40 / intra_refresh=0 / rc_lookahead=60 / rc=crf / mbtree=1 / crf=17.0 / qcomp=0.60 / qpmin=10 / qpmax=51 / qpstep=4 / vbv_maxrate=40000 / vbv_bufsize=40000 / crf_max=0.0 / nal_hrd=none / frame-packing=4 / ip_ratio=1.40 / aq=1:0.70
    Audio #1
    ID : 2
    Format : AC-3
    Format/Info : Audio Coding 3
    Mode extension : CM (complete main)
    Codec ID : A_AC3
    Duration : 1h 34mn
    Bit rate mode : Constant
    Bit rate : 640 Kbps
    Channel(s) : 6 channels
    Channel positions : Front: L C R, Side: L R, LFE
    Sampling rate : 48.0 KHz
    Bit depth : 16 bits
    Compression mode : Lossy
    Stream size : 431 MiB (3%)
    Title : Дубляж (лицензия)
    Language : Russian
    Audio #2
    ID : 3
    Format : AC-3
    Format/Info : Audio Coding 3
    Mode extension : CM (complete main)
    Codec ID : A_AC3
    Duration : 1h 34mn
    Bit rate mode : Constant
    Bit rate : 640 Kbps
    Channel(s) : 6 channels
    Channel positions : Front: L C R, Side: L R, LFE
    Sampling rate : 48.0 KHz
    Bit depth : 16 bits
    Compression mode : Lossy
    Stream size : 431 MiB (3%)
    Title : Дубляж (лицензия)
    Language : Ukrainian
    Audio #3
    ID : 4
    Format : AC-3
    Format/Info : Audio Coding 3
    Mode extension : CM (complete main)
    Codec ID : A_AC3
    Duration : 1h 34mn
    Bit rate mode : Constant
    Bit rate : 640 Kbps
    Channel(s) : 6 channels
    Channel positions : Front: L C R, Side: L R, LFE
    Sampling rate : 48.0 KHz
    Bit depth : 16 bits
    Compression mode : Lossy
    Stream size : 431 MiB (3%)
    Title : Original
    Language : English
    Text #1
    ID : 5
    Format : UTF-8
    Codec ID : S_TEXT/UTF8
    Codec ID/Info : UTF-8 Plain Text
    Title : Форсированные
    Language : Russian
    Text #2
    ID : 6
    Format : UTF-8
    Codec ID : S_TEXT/UTF8
    Codec ID/Info : UTF-8 Plain Text
    Title : Полные
    Language : Russian
    Text #3
    ID : 7
    Format : UTF-8
    Codec ID : S_TEXT/UTF8
    Codec ID/Info : UTF-8 Plain Text
    Title : Форсированные
    Language : Ukrainian
    Text #4
    ID : 8
    Format : UTF-8
    Codec ID : S_TEXT/UTF8
    Codec ID/Info : UTF-8 Plain Text
    Title : Полные
    Language : Ukrainian
    Text #5
    ID : 9
    Format : UTF-8
    Codec ID : S_TEXT/UTF8
    Codec ID/Info : UTF-8 Plain Text
    Title : Full
    Language : English
    Text #6
    ID : 10
    Format : UTF-8
    Codec ID : S_TEXT/UTF8
    Codec ID/Info : UTF-8 Plain Text
    Title : SDH
    Language : English
    Menu
    00:00:00.000 : :1
    00:10:52.402 : :2
    00:19:13.277 : :3
    00:30:06.805 : :4
    00:39:21.442 : :5
    00:49:58.662 : :6
    00:59:03.457 : :7
    01:09:11.773 : :8
    01:19:27.096 : :9
    01:26:03.492 : :10

    Скриншоты

    Cover & Label


    Скачать .torrent

    Скачать торрент-файл бесплатно и на максимальной скорости!

    Как скачивать? · Что такое торрент? · Рейтинг и ограничения

    !ВНИМАНИЕ!
    Сайт не распространяет и не хранит электронные версии произведений, а занимается лишь лишь предоставлением доступа к создаваемому пользователями каталогу ссылок на торрент-файлы, которые содержат только списки хеш-сумм, убедительная просьба с жалобами обращаться напрямую к пользователю. Файлы для обмена на трекере предоставлены пользователями сайта, и администрация не несёт ответственности за их содержание. Просьба не заливать файлы, защищенные авторскими правами, а также файлы нелегального содержания!


    _________________
    [Профиль] [ЛС]
    Показать сообщения:    
    Ответить на тему

    Текущее время: Сегодня, в 06:05

    Часовой пояс: GMT + 2



    Вы не можете начинать темы
    Вы не можете отвечать на сообщения
    Вы не можете редактировать свои сообщения
    Вы не можете удалять свои сообщения
    Вы не можете голосовать в опросах
    Вы не можете прикреплять файлы к сообщениям
    Вы не можете скачивать файлы