Register  ·  Log in
Forgot password?

  • По небу босиком (Султан Хажироко) [2015, Мелодрама, комедия, WEB-DLRip]

    Reply to topic
    Author Message


    Post 27-Jul-2016 13:44



    По небу босиком
    Слоган: «Танцуй, ведь ты так молод... Люби, ведь ты так одинок»
    Жанр: Мелодрама, комедия
    Год выпуска: 2015
    Продолжительность: 01:31:44
    Режиссер: Султан Хажироко
    В ролях: Алан Кокаев, Милана Карагулова, Султан Хажироко, Арсенуко Масаев, Валентин Камергоев, Роза Байзуллаева, Фатима Мамаева, Юсуп Омаров, Ефрем Амирамов, Сати Казанова, Вадим Мисостов, Олег Гусейнов, Лариса Кярова, Ахмет Хамурзов, Роман Крюков, Людмила Шереметова, Басир Шибзухов
    Описание: Говорят, что случайностей в жизни не бывает, что все предопределено… быть может там на небе есть такое министерство… ну, в котором все за нас решают: что и когда с нами должно произойти». С этих слов начинается история, в которой судьба играет с главными героями, превращая близких людей, в совсем незнакомых, даря им любовь и тут же забирая ее назад, сменяет радость грустью, а дружбу предательством. Но какие бы сюрпризы не преподносила жизнь — танцуй, ведь ты так молод, люби, ведь ты так одинок.
    Кинопоиск: Рейтинг фильма 7.827
    Качество видео: WEB-DLRip
    Исходник: [p0.Hebu.b0C1k0m.2O15.WEB-DL.1080p]
    Формат видео: AVI
    Видео: 720x400 (1.80:1), 25 fps, XviD build 65 ~2073 kbps avg, 0.29 bit/pixe
    Audio: 48 kHz, AC3 Dolby Digital, 2/0 (L,R) ch, ~192 kbps - iTunes

    Rip by Ториял


    Format : AVI
    Format/Info : Audio Video Interleave
    File size : 1.46 GiB
    Duration : 1h 31mn
    Overall bit rate : 2 276 Kbps
    Writing application : VirtualDubMod (build 2540/release)
    Writing library : VirtualDubMod build 2540/release
    ID : 0
    Format : MPEG-4 Visual
    Format profile : Advanced Simple@L5
    Format settings, BVOP : 1
    Format settings, QPel : No
    Format settings, GMC : No warppoints
    Format settings, Matrix : Custom
    Codec ID : XVID
    Codec ID/Hint : XviD
    Duration : 1h 31mn
    Bit rate : 2 074 Kbps
    Width : 720 pixels
    Height : 400 pixels
    Display aspect ratio : 16:9
    Frame rate : 25.000 fps
    Color space : YUV
    Chroma subsampling : 4:2:0
    Bit depth : 8 bits
    Scan type : Progressive
    Compression mode : Lossy
    Bits/(Pixel*Frame) : 0.288
    Stream size : 1.33 GiB (91%)
    Writing library : XviD 65
    ID : 1
    Format : AC-3
    Format/Info : Audio Coding 3
    Format profile : Dolby Digital
    Mode extension : CM (complete main)
    Format settings, Endianness : Big
    Codec ID : 2000
    Duration : 1h 31mn
    Bit rate mode : Constant
    Bit rate : 192 Kbps
    Channel(s) : 2 channels
    Channel positions : Front: L R
    Sampling rate : 48.0 KHz
    Frame rate : 31.250 fps (1536 spf)
    Compression mode : Lossy
    Stream size : 126 MiB (8%)
    Alignment : Split accross interleaves
    Interleave, duration : 40 ms (1.00 video frame)
    Interleave, preload duratio : 500 ms


    Download .torrent

    Download free and at maximum speed!

    How to Download? · What is a torrent? · Ratings and Limitations

    The site does not extend and does not store electronic(digital) versions of products, and only gives access to a reference catalogue created by users on torrent-files which contain only lists of the hash-sums, the earnest entreaty, with complaints(abuse) to access directly to the user. Files for an exchange on tracker are given by users of a site, and the administration does not bear the responsibility for their maintenance. The request to not fill in the files protected by copyrights, and also files of the illegal maintenance!

    [Profile] [PM]
    Display posts from previous:    
    Reply to topic

    The time now is: Today 16:32

    All times are GMT + 3 Hours

    You cannot post new topics in this forum
    You cannot reply to topics in this forum
    You cannot edit your posts in this forum
    You cannot delete your posts in this forum
    You cannot vote in polls in this forum
    You cannot attach files in this forum
    You cannot download files in this forum