BitTorrentTracker PerecTracker.org
BitTorrentTracker PerecTracker.org
    
Регистрация  ·  Вход
 
 · 
Забыли пароль?

  • Лавовая земля: Светящиеся Гавайи в 3Д / Lava Land: Glühendes Hawaii 3D (Bosie Vincent) [2013, Документальный, Видовой, BDrip-AVC] Eng, Half OverUnder / Вертикальная анаморфная стереопара

    Ответить на тему
     
    Автор Сообщение

    rechyn

    Создавать темы 16-Мар-2014 14:01

           

    [Цитировать]

    Лавовая земля: Светящиеся Гавайи
    Lava Land: Glühendes Hawaii

    Год выпуска: 2013
    Страна: США, Германия (New KSM, Electric Sky Productions)
    Жанр: Документальный, Видовой
    Продолжительность: 0:51:10 + 0:52:02
    Перевод: Отсутствует
    Режиссеры: Bosie Vincent, Nick Kennedy
    Рассказчик (на английском): Simon Beale
    Описание: Действующие вулканы, горящая лава, льющаяся в море, лавовые пещеры, тропические дождевые леса, коралловые рифы. Гавайи - это райские впечатления для путешественников, серферов и исследователей. Островитяне нашли свой собственный способ, как выживать при постоянной угрозе, исходящей от всех, действующих там, вулканов.-
    За исходный BD 3D спасибо и PeterGriffin!
    Рип by Ash61
    -Качество: BDRip (by Ash61)
    Контейнер: MKV
    Формат 3D: Half OverUnder / Вертикальная анаморфная стереопара
    Порядок ракурсов: левый ракурс первый
    Видео кодек: x264
    Аудио кодек: AC3-Видео: AVC / 23,976 fps / 1920х1080p / 14.4 & 13.9 Mbps
    Аудио: Английский / AC3 / 48 KHz / 2 ch / 448 Kbps
    Субтитры: Отсутствуют

    MediaInfo первого файла (второй отличается только битрейтом видео)

    General
    Unique ID : 210558563021006102953098285945670376894 (0x9E681AAA07511C1098D805D4631C9DBE)
    Complete name : E:\LavaLand(2013)3D-halfOU(Ash61)Eng\LavaLand-1(2013)3D-halfOU(Ash61)Eng.mkv
    Format : Matroska
    Format version : Version 2
    File size : 5.40 GiB
    Duration : 51mn 9s
    Overall bit rate : 15.1 Mbps
    Movie name : Лавовая земля: Светящиеся Гавайи / Lava Land: Gl�hendes Hawaii (2013) 3D
    Encoded date : UTC 2014-03-10 17:32:57
    Writing application : mkvmerge v5.8.0 ('No Sleep / Pillow') built on Sep 2 2012 15:37:04
    Writing library : libebml v1.2.3 + libmatroska v1.3.0
    Video
    ID : 1
    Format : AVC
    Format/Info : Advanced Video Codec
    Format profile : High@L4.1
    Format settings, CABAC : Yes
    Format settings, ReFrames : 4 frames
    Muxing mode : Header stripping
    Codec ID : V_MPEG4/ISO/AVC
    Duration : 51mn 9s
    Bit rate : 14.4 Mbps
    Width : 1 920 pixels
    Height : 1 080 pixels
    Display aspect ratio : 16:9
    Frame rate mode : Constant
    Frame rate : 23.976 fps
    Color space : YUV
    Chroma subsampling : 4:2:0
    Bit depth : 8 bits
    Scan type : Progressive
    Bits/(Pixel*Frame) : 0.289
    Stream size : 5.13 GiB (95%)
    Title : BDRip by Ash61
    Writing library : x264 core 129 r2245 bc13772
    Encoding settings : cabac=1 / ref=4 / deblock=1:-3:-3 / analyse=0x3:0x113 / me=umh / subme=10 / psy=1 / psy_rd=1.00:0.15 / mixed_ref=1 / me_range=32 / chroma_me=1 / trellis=2 / 8x8dct=1 / cqm=0 / deadzone=21,11 / fast_pskip=1 / chroma_qp_offset=-3 / threads=12 / lookahead_threads=2 / sliced_threads=0 / nr=0 / decimate=1 / interlaced=0 / bluray_compat=0 / constrained_intra=0 / bframes=8 / b_pyramid=2 / b_adapt=2 / b_bias=0 / direct=3 / weightb=1 / open_gop=0 / weightp=2 / keyint=250 / keyint_min=23 / scenecut=40 / intra_refresh=0 / rc_lookahead=60 / rc=crf / mbtree=1 / crf=17.0 / qcomp=0.70 / qpmin=0 / qpmax=69 / qpstep=4 / vbv_maxrate=40000 / vbv_bufsize=30000 / crf_max=0.0 / nal_hrd=none / frame-packing=4 / ip_ratio=1.40 / aq=1:0.70
    Language : German
    Default : Yes
    Forced : No
    Audio
    ID : 2
    Format : AC-3
    Format/Info : Audio Coding 3
    Mode extension : CM (complete main)
    Format settings, Endianness : Big
    Muxing mode : Header stripping
    Codec ID : A_AC3
    Duration : 51mn 9s
    Bit rate mode : Constant
    Bit rate : 448 Kbps
    Channel(s) : 2 channels
    Channel positions : Front: L R
    Sampling rate : 48.0 KHz
    Bit depth : 16 bits
    Compression mode : Lossy
    Stream size : 164 MiB (3%)
    Language : English
    Default : Yes
    Forced : No
    Menu
    00:00:00.000 : :1
    00:10:11.986 : :2
    00:20:05.996 : :3
    00:29:10.916 : :4
    00:40:11.993 : :5

    Скриншоты

    Для оценки 3Д - Анимированные скрины












    Скачать .torrent

    Скачать торрент-файл бесплатно и на максимальной скорости!

    Как скачивать? · Что такое торрент? · Рейтинг и ограничения

    !ВНИМАНИЕ!
    Сайт не распространяет и не хранит электронные версии произведений, а занимается лишь лишь предоставлением доступа к создаваемому пользователями каталогу ссылок на торрент-файлы, которые содержат только списки хеш-сумм, убедительная просьба с жалобами обращаться напрямую к пользователю. Файлы для обмена на трекере предоставлены пользователями сайта, и администрация не несёт ответственности за их содержание. Просьба не заливать файлы, защищенные авторскими правами, а также файлы нелегального содержания!


    _________________
    [Профиль] [ЛС]
    Показать сообщения:    
    Ответить на тему

    Текущее время: Сегодня, в 20:37

    Часовой пояс: GMT + 2



    Вы не можете начинать темы
    Вы не можете отвечать на сообщения
    Вы не можете редактировать свои сообщения
    Вы не можете удалять свои сообщения
    Вы не можете голосовать в опросах
    Вы не можете прикреплять файлы к сообщениям
    Вы не можете скачивать файлы