BitTorrentTracker PerecTracker.org
BitTorrentTracker PerecTracker.org
    
Регистрация  ·  Вход
 
 · 
Забыли пароль?

  • Звездный путь / Star Trek (Джей Джей Абрамс / J.J. Abrams) [2009 г., фантастика, боевик, приключения, BDRip-AVC] Dub + AVO (Сербин) + Original + Sub (rus, eng)

    Ответить на тему
     
    Автор Сообщение

    rechyn

    Создавать темы 26-Июл-2016 22:05

           

    [Цитировать]

    Звездный путь / Star TrekГод выпуска: 2009
    Страна: США
    Жанр: фантастика, боевик, приключения
    Продолжительность: 02:06:50
    Перевод:
    - профессиональный (полное дублирование)
    - авторский (одноголосый закадровый, Сербин)
    Русские субтитры: есть
    Режиссер: Джей Джей Абрамс / J.J. Abrams
    В ролях: Крис Пайн, Закари Куинто, Леонард Нимой, Эрик Бана, Брюс Гринвуд, Карл Урбан, Зои Салдана, Саймон Пегг, Джон Чо, Антон Ельчин
    Описание: Когда Нерон с планеты Ромул приходит из будущего, чтобы отомстить Федерации, конкуренты Кирк и Спок должны объединиться, чтобы не дать ему разрушить все, что им дорого. Во время этого будоражащего путешествия, наполненного эффектными боями, юмором и космическими угрозами, новоиспеченные члены команды военного корабля «Энтерпрайз» смело встретятся лицом к лицу с невообразимыми опасностями.
    Рейтинг MPAA: - Sample-

    Интересные факты о фильме

    Роль Кирка могла достаться Майку Фогелю.
    Сидни Тамиа Пуатье прослушивалась на роль Ухуры.
    Исполнитель роли Спока в оригинальном фильме Леонард Нимой не снимался в кино с 1991 года. В «Звездном пути» Джей Джей Абрамса он сыграл Спока в старости.
    Полное имя персонажа Ухуры ранее никогда не называлось. Тем не менее, существовали как минимум три неофициальных варианта ее фамилии: «Нийота», «(У)Пенда» и «Самара». Создатели нового «Звездного пути» выбрали первый вариант, и в фильме героиня Зои Салданы носит имя Ухура Нийота.
    По словам Джей Джей Абрамса на роль главного злодея Неро было только два кандидата: Эрик Бана и Рассел Кроу. Неро в итоге сыграл Эрик Бана.
    Кандидатура Джоша Лукаса рассматривалась на роль капитана Кристофера Пайка.
    Кирка так же мог сыграть Джошуа Джексон.
    В одном из эпизодов фильма появляется Кристофер Дуэн, сын Джеймса Дуэна, исполнителя роли Скотти в оригинальной ленте.
    «Звездный путь» Джей Джей Абрамса - самый дорогой из всей франшизы. На втором месте «Звездный путь: Возмездие» с бюджетом 60 миллионов, на третьей - самый первый «Звездный путь» с 46 миллионами.
    По словам Кристофера Пайна он не хотел выглядеть дешевой имитацией Уильяма Шетнера, исполнителя роли Кирка в оригинальной ленте, поэтому придумал свою манеру игры, основанную на поведении двух персонажей Харрисона Форда, Хана Соло и Индианы Джонса.
    Сцены корабельной начинки (огромные помещения с переплетением труб и резервуаров) снимались на пивном заводе Будвайзер. Во всех этих цистернах Бад Лайт).
    В последний день своих съемок в роли старого Спока Леонард Нимой разбил нос, и вся команда тут же остановила съемки и предложила отложить их до следующего дня, но Нимой отказался и настоял на продолжении съемок - он ждал этого дня, и эмоционально он был для него очень важен.
    Машина на которой едет Кирк в детстве это - 1963 Chevrolet Corvette StingRay.
    На 46 минуте фильма, среди обломков космических кораблей, можно заметить робота R2-D2, который известен по саге «Звездные войны».

    Награды и номинации

    Оскар, 2010 год
    Победитель (1):
    * Лучший грим
    Номинации (3):
    * Лучший звук
    * Лучший монтаж звука
    * Лучшие визуальные эффекты
    Премия канала «MTV», 2010 год
    Номинации (1):
    * Прорыв года (Крис Пайн)
    Британская академия, 2010 год
    Номинации (2):
    * Лучший звук
    * Лучшие визуальные эффекты
    Качество: BDRip-AVC (BDRemux)
    Формат: MKV
    Видео кодек: H.264
    Аудио кодек: AC3
    Видео: 1280x536 (2.4:1), 3586 kbps, 23.976 fps
    Аудио №1: Russian, AC3, 6ch, 48 kHz, 448 kbps (Дубляж)
    Аудио №2: Russian, AC3, 6ch, 48 kHz, 448 kbps (Одноголосый, Сербин)
    Аудио №3: English, AC3, 6ch, 48 kHz, 448 kbps (Оригинал)
    Аудио №4: English, AC3, 2ch, 48 kHz, 224 kbps (Комментарии) - скачать
    Субтитры №1: Russian, SRT, форсированные
    Субтитры №2: Russian, SRT, полные
    Субтитры №3: English, SRT, полные
    Субтитры №4: English, VobSub, комментарии - скачать-

    Сравнение с исходником

    В рипе нет ни перекропа, ни искажения AR, картинка была достроена до нужного размера.-Rip

    Source

    MediaInfo

    Format : Matroska
    File size : 4.37 GiB
    Duration : 2h 6mn
    Overall bit rate : 4 931 Kbps
    Movie name : Star Trek (2009) BDRip
    Encoded date : UTC 2010-11-19 15:46:21
    Writing application : mkvmerge v4.4.0 ('Die Wiederkehr') сборка от Oct 31 2010 21:52:48
    Writing library : libebml v1.0.0 + libmatroska v1.0.0
    Cover : Yes
    Video
    ID : 1
    Format : AVC
    Format/Info : Advanced Video Codec
    Format profile : High@L4.0
    Format settings, CABAC : Yes
    Format settings, ReFrames : 11 frames
    Codec ID : V_MPEG4/ISO/AVC
    Duration : 2h 6mn
    Bit rate : 3 489 Kbps
    Width : 1 280 pixels
    Height : 536 pixels
    Display aspect ratio : 2.35:1
    Frame rate : 23.976 fps
    Color space : YUV
    Chroma subsampling : 4:2:0
    Bit depth : 8 bits
    Scan type : Progressive
    Bits/(Pixel*Frame) : 0.212
    Stream size : 3.09 GiB (71%)
    Writing library : x264 core 107 r1766 f9f0035
    Encoding settings : cabac=1 / ref=11 / deblock=1:-3:-1 / analyse=0x3:0x133 / me=umh / subme=10 / psy=1 / psy_rd=0.90:0.06 / mixed_ref=1 / me_range=32 / chroma_me=1 / trellis=2 / 8x8dct=1 / cqm=0 / deadzone=21,11 / fast_pskip=1 / chroma_qp_offset=-3 / threads=6 / sliced_threads=0 / nr=0 / decimate=1 / interlaced=0 / constrained_intra=0 / bframes=10 / b_pyramid=2 / b_adapt=2 / b_bias=0 / direct=3 / weightb=1 / open_gop=0 / weightp=2 / keyint=250 / keyint_min=23 / scenecut=40 / intra_refresh=0 / rc_lookahead=120 / rc=crf / mbtree=1 / crf=19.5 / qcomp=0.70 / qpmin=10 / qpmax=51 / qpstep=4 / ip_ratio=1.40 / aq=1:0.95
    Language : English
    Audio #1
    ID : 2
    Format : AC-3
    Format/Info : Audio Coding 3
    Mode extension : CM (complete main)
    Codec ID : A_AC3
    Duration : 2h 6mn
    Bit rate mode : Constant
    Bit rate : 448 Kbps
    Channel(s) : 6 channels
    Channel positions : Front: L C R, Side: L R, LFE
    Sampling rate : 48.0 KHz
    Bit depth : 16 bits
    Stream size : 406 MiB (9%)
    Title : Dub
    Language : Russian
    Audio #2
    ID : 3
    Format : AC-3
    Format/Info : Audio Coding 3
    Mode extension : CM (complete main)
    Codec ID : A_AC3
    Duration : 2h 6mn
    Bit rate mode : Constant
    Bit rate : 448 Kbps
    Channel(s) : 6 channels
    Channel positions : Front: L C R, Side: L R, LFE
    Sampling rate : 48.0 KHz
    Bit depth : 16 bits
    Stream size : 406 MiB (9%)
    Title : AVO (Serbin)
    Language : Russian
    Audio #3
    ID : 4
    Format : AC-3
    Format/Info : Audio Coding 3
    Mode extension : CM (complete main)
    Codec ID : A_AC3
    Duration : 2h 6mn
    Bit rate mode : Constant
    Bit rate : 448 Kbps
    Channel(s) : 6 channels
    Channel positions : Front: L C R, Side: L R, LFE
    Sampling rate : 48.0 KHz
    Bit depth : 16 bits
    Stream size : 406 MiB (9%)
    Title : Original
    Language : English
    Text #1
    ID : 5
    Format : UTF-8
    Codec ID : S_TEXT/UTF8
    Codec ID/Info : UTF-8 Plain Text
    Title : Forced
    Language : Russian
    Text #2
    ID : 6
    Format : UTF-8
    Codec ID : S_TEXT/UTF8
    Codec ID/Info : UTF-8 Plain Text
    Title : Full
    Language : Russian
    Text #3
    ID : 7
    Format : UTF-8
    Codec ID : S_TEXT/UTF8
    Codec ID/Info : UTF-8 Plain Text
    Title : Full
    Language : English

    x264 log

    x264 [info]: frame I:1245 Avg QP:16.97 size: 95442 PSNR Mean Y:46.71 U:49.85 V:50.72 Avg:47.59 Global:47.20
    x264 [info]: frame P:46911 Avg QP:20.92 size: 30282 PSNR Mean Y:44.74 U:48.73 V:49.54 Avg:45.61 Global:44.86
    x264 [info]: frame B:134308 Avg QP:22.63 size: 13930 PSNR Mean Y:43.16 U:47.82 V:48.81 Avg:44.25 Global:43.87
    x264 [info]: consecutive B-frames: 4.8% 5.0% 11.1% 19.0% 14.7% 35.9% 4.7% 1.8% 1.1% 1.1% 0.8%
    x264 [info]: mb I I16..4: 8.3% 78.2% 13.5%
    x264 [info]: mb P I16..4: 4.0% 21.9% 1.9% P16..4: 42.5% 18.1% 2.8% 0.2% 0.1% skip: 8.6%
    x264 [info]: mb B I16..4: 0.2% 2.6% 0.2% B16..8: 42.9% 11.7% 2.7% direct: 7.1% skip:32.5% L0:45.2% L1:46.1% BI: 8.7%
    x264 [info]: 8x8 transform intra:80.3% inter:72.3%
    x264 [info]: direct mvs spatial:100.0% temporal:0.0%
    x264 [info]: coded y,uvDC,uvAC intra: 81.2% 74.3% 46.4% inter: 31.3% 25.5% 3.6%
    x264 [info]: i16 v,h,dc,p: 29% 17% 9% 44%
    x264 [info]: i8 v,h,dc,ddl,ddr,vr,hd,vl,hu: 10% 8% 6% 10% 15% 13% 15% 11% 13%
    x264 [info]: i4 v,h,dc,ddl,ddr,vr,hd,vl,hu: 9% 9% 4% 9% 16% 14% 16% 10% 14%
    x264 [info]: i8c dc,h,v,p: 39% 25% 17% 19%
    x264 [info]: Weighted P-Frames: Y:6.3%
    x264 [info]: ref P L0: 43.8% 11.5% 17.8% 6.9% 5.6% 3.8% 3.3% 2.0% 1.8% 1.5% 1.5% 0.5% 0.0%
    x264 [info]: ref B L0: 72.2% 12.3% 5.9% 3.1% 2.1% 1.6% 1.2% 0.8% 0.5% 0.2%
    x264 [info]: ref B L1: 92.4% 7.6%
    x264 [info]: SSIM Mean Y:0.9700913 (15.242db)
    x264 [info]: PSNR Mean Y:43.589 U:48.065 V:49.013 Avg:44.621 Global:44.117 kb/s:3584.86
    encoded 182464 frames, 3.87 fps, 3584.86 kb/s
    -
    --
    Скачать .torrent

    Скачать торрент-файл бесплатно и на максимальной скорости!

    Как скачивать? · Что такое торрент? · Рейтинг и ограничения

    !ВНИМАНИЕ!
    Сайт не распространяет и не хранит электронные версии произведений, а занимается лишь лишь предоставлением доступа к создаваемому пользователями каталогу ссылок на торрент-файлы, которые содержат только списки хеш-сумм, убедительная просьба с жалобами обращаться напрямую к пользователю. Файлы для обмена на трекере предоставлены пользователями сайта, и администрация не несёт ответственности за их содержание. Просьба не заливать файлы, защищенные авторскими правами, а также файлы нелегального содержания!


    _________________
    [Профиль] [ЛС]
    Показать сообщения:    
    Ответить на тему

    Текущее время: Сегодня, в 21:48

    Часовой пояс: GMT + 2



    Вы не можете начинать темы
    Вы не можете отвечать на сообщения
    Вы не можете редактировать свои сообщения
    Вы не можете удалять свои сообщения
    Вы не можете голосовать в опросах
    Вы не можете прикреплять файлы к сообщениям
    Вы не можете скачивать файлы