BitTorrentTracker PerecTracker.org
BitTorrentTracker PerecTracker.org
    
Регистрация  ·  Вход
 
 · 
Забыли пароль?

  • Звездный путь / Star Trek (Джей Джей Абрамс / J.J. Abrams) [2009 г., фантастика, боевик, приключения, BDRip] Dub + Eng + Rus Sub

    Ответить на тему
     
    Автор Сообщение

    rechyn

    Создавать темы 26-Июл-2016 21:50

           

    [Цитировать]

    Звездный путь / Star Trek
    Год выпуска: 2009
    Страна: Германия, США
    Жанр: фантастика, боевик, приключения
    Продолжительность: 02:06:50
    Перевод: Дублированный
    Субтитры: русские (отдельным файлом)

    Режиссёр: Джей Джей Абрамс
    В ролях: Крис Пайн (Кирк), Закари Куинто (Спок), Эрик Бана (Неро), Вайнона Райдер (Аманда Грейсон), Зои Салдана (Ниота Ухура), Карл Урбан (Леонард "Скелет" МакКой), Брюс Гринвуд (Кристофер Пайк), Джон Чо (Сулу), Леонард Нимой (Спок), Саймон Пегг (Скотти), Антон Ельчин (Павел Чеков), Клифтон Коллинз-мл. (Айел), Бен Кросс (Сарек), Крис Хэмсуорт (Джордж Кирк), Дженнифер Моррисон, Тайлер Перри-Описание: Судьба галактики в руках непримиримых соперников, принадлежащих к совершенно разным мирам. Один из них — Джеймс Т. Кирк, хулиган из Айовы, прирожденный лидер, и искатель приключений. Второй, Спок, вырос на планете Вулкан и стал изгоем по причине своего получеловеческого происхождения.
    Кирк и Спок являются полными противоположностями; стремясь познать свою истинную сущность и понять, что они могут дать миру, молодые люди вскоре становятся непримиримыми соперниками. Один из них движим страстями, другой руководствуется холодной логикой.

    СЭМПЛ
    Качество:BDRip(BDRemux)
    Формат: AVI
    Видео: 720x304 (2.37:1), 23.976 fps, XviD build 63 ~1351 kbps avg, 0.26 bit/pixel
    Аудио: 48 kHz, MPEG Layer 3, 2 ch, ~128.00 kbps avg RUS
    Аудио: 48 kHz, MPEG Layer 3, 2 ch, ~128.00 kbps avg ENG
    Субтитры: SRT

    MediaInfo

    General
    Complete name : E:\Downloads\Zvezdniy put.chopper887\Zvezdniy put.chopper887.avi
    Format : AVI
    Format/Info : Audio Video Interleave
    File size : 1.44 GiB
    Duration : 2h 6mn
    Overall bit rate : 1 622 Kbps
    Movie name : Zvezdniy put.chopper887
    Director : chopper887
    Genre : Adventure/Fantasy
    Writing application : VirtualDubMod 1.5.10.3 | www.virtualdub-fr.org || (build 2550/release)
    Original source form/Name : Movie
    Video
    ID : 0
    Format : MPEG-4 Visual
    Format profile : Advanced Simple@L5
    Format settings, BVOP : 2
    Format settings, QPel : No
    Format settings, GMC : No warppoints
    Format settings, Matrix : Custom
    Codec ID : XVID
    Codec ID/Hint : XviD
    Duration : 2h 6mn
    Bit rate : 1 353 Kbps
    Width : 720 pixels
    Height : 304 pixels
    Display aspect ratio : 2.35:1
    Frame rate : 23.976 fps
    Color space : YUV
    Chroma subsampling : 4:2:0
    Bit depth : 8 bits
    Scan type : Progressive
    Compression mode : Lossy
    Bits/(Pixel*Frame) : 0.258
    Stream size : 1.20 GiB (83%)
    Writing library : XviD 63
    Audio #1
    ID : 1
    Format : MPEG Audio
    Format version : Version 1
    Format profile : Layer 3
    Codec ID : 55
    Codec ID/Hint : MP3
    Duration : 2h 6mn
    Bit rate mode : Constant
    Bit rate : 128 Kbps
    Channel(s) : 2 channels
    Sampling rate : 48.0 KHz
    Compression mode : Lossy
    Stream size : 116 MiB (8%)
    Alignment : Aligned on interleaves
    Interleave, duration : 42 ms (1.00 video frame)
    Interleave, preload duration : 504 ms
    Writing library : LAME3.98r
    Encoding settings : -m s -V 4 -q 2 -lowpass 17 -b 128
    Audio #2
    ID : 2
    Format : MPEG Audio
    Format version : Version 1
    Format profile : Layer 3
    Codec ID : 55
    Codec ID/Hint : MP3
    Duration : 2h 6mn
    Bit rate mode : Constant
    Bit rate : 128 Kbps
    Channel(s) : 2 channels
    Sampling rate : 48.0 KHz
    Compression mode : Lossy
    Stream size : 116 MiB (8%)
    Alignment : Aligned on interleaves
    Interleave, duration : 42 ms (1.00 video frame)
    Interleave, preload duration : 504 ms
    Writing library : LAME3.98r
    Encoding settings : -m s -V 4 -q 2 -lowpass 17 -b 128

    Скриншоты

    Скачать .torrent

    Скачать торрент-файл бесплатно и на максимальной скорости!

    Как скачивать? · Что такое торрент? · Рейтинг и ограничения

    !ВНИМАНИЕ!
    Сайт не распространяет и не хранит электронные версии произведений, а занимается лишь лишь предоставлением доступа к создаваемому пользователями каталогу ссылок на торрент-файлы, которые содержат только списки хеш-сумм, убедительная просьба с жалобами обращаться напрямую к пользователю. Файлы для обмена на трекере предоставлены пользователями сайта, и администрация не несёт ответственности за их содержание. Просьба не заливать файлы, защищенные авторскими правами, а также файлы нелегального содержания!


    _________________
    [Профиль] [ЛС]
    Показать сообщения:    
    Ответить на тему

    Текущее время: Сегодня, в 11:54

    Часовой пояс: GMT + 2



    Вы не можете начинать темы
    Вы не можете отвечать на сообщения
    Вы не можете редактировать свои сообщения
    Вы не можете удалять свои сообщения
    Вы не можете голосовать в опросах
    Вы не можете прикреплять файлы к сообщениям
    Вы не можете скачивать файлы