BitTorrentTracker PerecTracker.org
BitTorrentTracker PerecTracker.org
    
Регистрация  ·  Вход
 
 · 
Забыли пароль?

  • Мистериум. Тьма в бутылке / Flaskepost fra P (Ганс Петтер Моланд / Hans Petter Moland) [2016, Дания, Германия, Швеция, Норвегия, Триллер, криминал, детектив, драма, экранизация, HDRip] MVO (GreenРай Studio) + Original

    Ответить на тему
     
    Автор Сообщение

    rechyn

    Создавать темы 26-Июл-2016 19:53

           

    [Цитировать]

    Мистериум. Тьма в бутылке / Flaskepost fra P
    Страна: Дания, Германия, Швеция, Норвегия
    Жанр: Триллер, криминал, детектив, драма, экранизация
    Год выпуска: 2016
    Продолжительность: 01:51:41
    Перевод: Любительский (многоголосый закадровый) - GreenРай Studio
    Cубтитры: нет
    Оригинальная аудиодорожка: Датский
    Режиссер: Ганс Петтер Моланд / Hans Petter Moland
    В ролях: Николай Ли Каас, Фарес Фарес, Пол Сверре Валхейм Хаген, Якоб Ульрик Ломанн, Amanda Collin, Джохэнн Луиз Шмидт, Якоб Офтебро, Сигне Анастассиа Маннов, Сёрен Пильмарк, Михаэль Броструп
    Описание: В департаменте полиции Копенгагена существует особый отдел Q, который создали для раскрытия самых необычных и запутанных дел. В отделе работают детективы Карл Мёрке и Асад. В этот раз в отдел обращаются со странной находкой – в Шотландии случайно выловили запечатанную бутылку с призывом о помощи, написанную на датском языке, да ещё и кровью. К сожалению, время и соленая вода не пощадили текст, но сыщики берутся за расшифровку, надеясь пролить свет на тайну этого послания. Постепенно перед ними начинает открываться жуткая история, которая, судя по всему, ещё не завершилась. В результате детективы выходят на след убийцы-психопата и раскрывают жуткую историю похищенных детей, об исчезновении которых никто не заявлял.
    Сэмпл: http://multi-up.com/1111364
    Качество видео: HDRip Исходник: [Flaskepost.Fra.P.2016.DKsubs.1080p.BluRay.x264.DTS-PTNK]
    Формат видео: AVI
    Видео: 720x304 (2.37:1), 23.976 fps, XviD build 65 ~1478 kbps avg, 0.28 bit/pixel
    Аудио RUS: 48 kHz, AC3 Dolby Digital, 3/2 (L,C,R,l,r) + LFE ch, ~384 kbps
    Аудио Orignal: 48 kHz, AC3 Dolby Digital, 3/2 (L,C,R,l,r) + LFE ch, ~448 kbps - отдельно

    Rip by Ториял

    MediaInfo

    Format : AVI
    Format/Info : Audio Video Interleave
    File size : 1.46 GiB
    Duration : 1h 51mn
    Overall bit rate : 1 872 Kbps
    Writing application : VirtualDubMod 1.5.10.3 | www.virtualdub-fr.org || (build 2550/release)
    Writing library : VirtualDubMod build 2550/release
    Video
    ID : 0
    Format : MPEG-4 Visual
    Format profile : Advanced Simple@L5
    Format settings, BVOP : 1
    Format settings, QPel : No
    Format settings, GMC : No warppoints
    Format settings, Matrix : Custom
    Codec ID : XVID
    Codec ID/Hint : XviD
    Duration : 1h 51mn
    Bit rate : 1 479 Kbps
    Width : 720 pixels
    Height : 304 pixels
    Display aspect ratio : 2.35:1
    Frame rate : 23.976 (23976/1000) fps
    Color space : YUV
    Chroma subsampling : 4:2:0
    Bit depth : 8 bits
    Scan type : Progressive
    Compression mode : Lossy
    Bits/(Pixel*Frame) : 0.282
    Stream size : 1.15 GiB (79%)
    Writing library : XviD 65
    Audio
    ID : 1
    Format : AC-3
    Format/Info : Audio Coding 3
    Mode extension : CM (complete main)
    Format settings, Endianness : Big
    Codec ID : 2000
    Duration : 1h 51mn
    Bit rate mode : Constant
    Bit rate : 384 Kbps
    Channel(s) : 6 channels
    Channel positions : Front: L C R, Side: L R, LFE
    Sampling rate : 48.0 KHz
    Frame rate : 31.250 fps (1536 spf)
    Compression mode : Lossy
    Stream size : 307 MiB (21%)
    Alignment : Split accross interleaves
    Interleave, duration : 42 ms (1.00 video frame)
    Interleave, preload duratio : 500 ms

    Скриншоты

    Скачать .torrent

    Скачать торрент-файл бесплатно и на максимальной скорости!

    Как скачивать? · Что такое торрент? · Рейтинг и ограничения

    !ВНИМАНИЕ!
    Сайт не распространяет и не хранит электронные версии произведений, а занимается лишь лишь предоставлением доступа к создаваемому пользователями каталогу ссылок на торрент-файлы, которые содержат только списки хеш-сумм, убедительная просьба с жалобами обращаться напрямую к пользователю. Файлы для обмена на трекере предоставлены пользователями сайта, и администрация не несёт ответственности за их содержание. Просьба не заливать файлы, защищенные авторскими правами, а также файлы нелегального содержания!


    _________________
    [Профиль] [ЛС]
    Показать сообщения:    
    Ответить на тему

    Текущее время: Сегодня, в 02:28

    Часовой пояс: GMT + 2



    Вы не можете начинать темы
    Вы не можете отвечать на сообщения
    Вы не можете редактировать свои сообщения
    Вы не можете удалять свои сообщения
    Вы не можете голосовать в опросах
    Вы не можете прикреплять файлы к сообщениям
    Вы не можете скачивать файлы