BitTorrentTracker PerecTracker.org
BitTorrentTracker PerecTracker.org
    
Регистрация  ·  Вход
 
 · 
Забыли пароль?

  • С 5 до 7. Время любовников / 5 to 7 (Виктор Левин / Victor Levin) [2014, США, Драма, мелодрама, комедия, BDRip] DUB (iTunes) + Dub (Line)

    Ответить на тему
     
    Автор Сообщение

    Light

    Создавать темы 26-Июл-2016 19:53

           

    [Цитировать]

    С 5 до 7. Время любовников / 5 to 7
    Страна: США
    Жанр: Драма, мелодрама, комедия
    Год выпуска: 2014
    Продолжительность: 01:36:43
    Перевод: Профессиональный (дулированный) - iTunes
    Cубтитры: нет
    Оригинальная аудиодорожка: нет
    Режиссер: Виктор Левин / Victor Levin
    В ролях: Беренис Марло, Оливия Тирлби, Эрик Штольц, Антон Ельчин, Гленн Клоуз, Фрэнк Ланджелла, Ламбер Вильсон, Жослин ДеБоэр, Дов Тифенбах, Джозеф Д’Онофрио, Амина Робинсон, Келли Хартнет, Джулиан Бонд, Нэнси Дигонис, Грегг Майклс, Пол Торнтон, Хезер Уоррен, Дэвид Шеннон, Франческо Д’Онофрио, Лорен Карлсон
    Описание: Молодой американец Брайан встречает красивую, веселую и очаровательную француженку Ариэль, с которой у него завязывается роман, существующий на одном условии: общаются они исключительно с 5 до 7 вечера, потому что Ариэль замужем. Для французов, как выясняется, такая форма отношений — привычное дело, так что со временем герои признаются в происходящем и мужу Ариэль, французскому дипломату, и ее детям, а заодно и маме Брайана. И всем, кажется, весело — пока влюбленный, но ущемленный Брайан не начинает страдать.
    Дополнительная информация: Звук iTunes странного качества, слышно эхо, скачет громкость звука. Поэтому в раздачу добавлен Line, как мне кажется, он лучше по качеству, нежели iTunes. На вкус и цвет.
    Как подключить альтернативную (внешнюю) звуковую дорожку к видео?
    Сэмпл: http://multi-up.com/1111381
    Качество видео: BDRip Исходник: [5.To.7.2014.BDRemux.1080p.NNMCLUB]
    Формат видео: AVI
    Видео: 720x400 (1.80:1), 23.976 fps, XviD build 65 ~1765 kbps avg, 0.26 bit/pixel
    Аудио DUB (iTunes): 48 kHz, AC3 Dolby Digital, 3/2 (L,C,R,l,r) + LFE ch, ~384 kbps
    Аудио Dub (Line): 48 kHz, AC3 Dolby Digital, 2/0 (L,R) ch, ~192 kbps - отдельно
    Rip by Ториял

    MediaInfo

    Format : AVI
    Format/Info : Audio Video Interleave
    File size : 1.46 GiB
    Duration : 1h 36mn
    Overall bit rate : 2 159 Kbps
    Writing application : VirtualDubMod 1.5.10.2 (build 2540/release)
    Writing library : VirtualDubMod build 2540/release
    Video
    ID : 0
    Format : MPEG-4 Visual
    Format profile : Advanced Simple@L5
    Format settings, BVOP : 1
    Format settings, QPel : No
    Format settings, GMC : No warppoints
    Format settings, Matrix : Custom
    Codec ID : XVID
    Codec ID/Hint : XviD
    Duration : 1h 36mn
    Bit rate : 1 766 Kbps
    Width : 720 pixels
    Height : 400 pixels
    Display aspect ratio : 16:9
    Frame rate : 23.976 (23976/1000) fps
    Color space : YUV
    Chroma subsampling : 4:2:0
    Bit depth : 8 bits
    Scan type : Progressive
    Compression mode : Lossy
    Bits/(Pixel*Frame) : 0.256
    Stream size : 1.19 GiB (82%)
    Writing library : XviD 65
    Audio
    ID : 1
    Format : AC-3
    Format/Info : Audio Coding 3
    Mode extension : CM (complete main)
    Format settings, Endianness : Big
    Codec ID : 2000
    Duration : 1h 36mn
    Bit rate mode : Constant
    Bit rate : 384 Kbps
    Channel(s) : 6 channels
    Channel positions : Front: L C R, Side: L R, LFE
    Sampling rate : 48.0 KHz
    Frame rate : 31.250 fps (1536 spf)
    Compression mode : Lossy
    Stream size : 266 MiB (18%)
    Alignment : Split accross interleaves
    Interleave, duration : 42 ms (1.00 video frame)
    Interleave, preload duratio : 500 ms

    Скриншоты


    Скачать .torrent

    Скачать торрент-файл бесплатно и на максимальной скорости!

    Как скачивать? · Что такое торрент? · Рейтинг и ограничения

    !ВНИМАНИЕ!
    Сайт не распространяет и не хранит электронные версии произведений, а занимается лишь лишь предоставлением доступа к создаваемому пользователями каталогу ссылок на торрент-файлы, которые содержат только списки хеш-сумм, убедительная просьба с жалобами обращаться напрямую к пользователю. Файлы для обмена на трекере предоставлены пользователями сайта, и администрация не несёт ответственности за их содержание. Просьба не заливать файлы, защищенные авторскими правами, а также файлы нелегального содержания!


    _________________
    [Профиль] [ЛС]
    Показать сообщения:    
    Ответить на тему

    Текущее время: Сегодня, в 02:39

    Часовой пояс: GMT + 2



    Вы не можете начинать темы
    Вы не можете отвечать на сообщения
    Вы не можете редактировать свои сообщения
    Вы не можете удалять свои сообщения
    Вы не можете голосовать в опросах
    Вы не можете прикреплять файлы к сообщениям
    Вы не можете скачивать файлы