BitTorrentTracker PerecTracker.org
BitTorrentTracker PerecTracker.org
    
Регистрация  ·  Вход
 
 · 
Забыли пароль?

  • Хорошие руки / Серии: 1-12 из 12 (Юрий Кузьменко) [2014, криминал, драма, WEBRip (1080p)]

    Ответить на тему
     
    Автор Сообщение

    rechyn

    Создавать темы 26-Июл-2016 19:44

           

    [Цитировать]

    Хорошие руки--Год выпуска: 2014
    Производство: "Красный Квадрат Кино, Студии "Русский проект""
    Жанр: криминал, драма
    Продолжительность: 00:52:00
    Субтитры: нет-Режиссёр: Юрий Кузьменко-В ролях:
    Елена Ксенофонтова, Никита Салопин, Кирилл Сафонов, Николай Чиндяйкин, Ольга Шувалова, Александра Лупашко, Владислав Ветров, Владимир Капустин, Алёна Ивченко, Раиса Рязанова, Ксения Хаирова, Юлия Тельпухова, Михаил Владимиров, Дмитрий Панфилов, Михаил Хмуров, Ольга Хохлова, Ольга Ковалёва, Алексей Потапкин, Юлия Полынская, Алёна Ковалёва, Катерина Захарова, Екатерина Присмотрова-Белова, Дмитрий Кошелев, Антонина Комиссарова, Луиза Мосендз, Александр Алексеев (V), Сергей Галахов, Артем Манукян, Дарья Недоступ-Описание:
    Ольга Савельева — главврач роддома. Она прекрасный врач, ее роддом считается одним из лучших в городе. В нем рожают не только простые, но и весьма состоятельные или высокопоставленные роженицы. Ольга активно занимается профилактикой социального сиротства и курирует созданный ею Центр «Счастливая мама».
    В Центр стекается информация из поликлиник о неблагополучных беременных, имеющих намерения отказаться от ребенка. Как правило, с такими женщинами проводят профилактические беседы и направляют рожать в роддом к Савельевой. А здесь дети, от которых отказываются нерадивые мамаши, попадают, благодаря Ольге, в «хорошие руки», то есть к состоятельным, благополучным, но бездетным людям. Конечно, Ольгу «благодарят» значительными суммами за такое содействие, но — она считает, что не торгует детьми, а делает благое дело! А что: в сиротском доме им было бы лучше?
    С мужем, следователем прокуратуры Геннадием Мухиным, Ольга развелась, сыну Никите уже 18 лет. Стараниями Ольги, Никита избежал армии и поступил в престижный западный университет. Перед отъездом за границу, Никита устраивает прощальный вечер со своими друзьями на загородной даче. Ольга волнуется — почему Никита ей не звонит. Вскоре она узнает, что Никита убит.
    Мухин, расследуя убийство сына, обнаруживает, что оно связано с деятельностью Ольги…-Все раздачи сериала-Возраст: 16+-Качество: WEBRip (1080p)
    Формат: MKV
    Видео кодек: AVC
    Аудио кодек: AC3

    Видео: AVC, 1920 х 1080 (16:9), 25,000 кадр/сек, 2 111 Кбит/сек, 0.041 bit/pixel
    Аудио: AC3, 48000 Hz, 224 Kbps, 2 канала
    -

    MediaInfo

    General
    Unique ID : 140580027003714748918878282074548381148 (0x69C2BA75BAF5F010794295DBF824A5DC)
    Complete name : D:\Раздачи\Хорошие руки (1-12 серии из 12) WEB-DL (1080p).Хорошие руки.2014.WEB-DL1080p.Files-х.mkv
    Format : Matroska
    Format version : Version 4 / Version 2
    File size : 887 MiB
    Duration : 52mn 4s
    Overall bit rate : 2 382 Kbps
    Writing application : Lavf56.36.100
    Writing library : Lavf56.36.100 / Lavf56.36.100
    Video
    ID : 1
    Format : AVC
    Format/Info : Advanced Video Codec
    Format profile : High@L4
    Format settings, CABAC : Yes
    Format settings, ReFrames : 3 frames
    Codec ID : V_MPEG4/ISO/AVC
    Duration : 52mn 4s
    Bit rate : 2 111 Kbps
    Width : 1 920 pixels
    Height : 1 080 pixels
    Display aspect ratio : 16:9
    Frame rate mode : Constant
    Frame rate : 25.000 fps
    Color space : YUV
    Chroma subsampling : 4:2:0
    Bit depth : 8 bits
    Scan type : Progressive
    Bits/(Pixel*Frame) : 0.041
    Stream size : 786 MiB (89%)
    Default : Yes
    Forced : No
    Color range : Limited
    Color primaries : BT.709
    Transfer characteristics : BT.709
    Matrix coefficients : BT.709
    Audio
    ID : 2
    Format : AC-3
    Format/Info : Audio Coding 3
    Mode extension : CM (complete main)
    Format settings, Endianness : Big
    Codec ID : A_AC3
    Duration : 52mn 4s
    Bit rate mode : Constant
    Bit rate : 224 Kbps
    Channel(s) : 2 channels
    Channel positions : Front: L R
    Sampling rate : 44.1 KHz
    Frame rate : 28.711 fps (1536 spf)
    Compression mode : Lossy
    Delay relative to video : -40ms
    Stream size : 83.4 MiB (9%)
    Language : unknown
    Default : Yes
    Forced : No
    -

    Скриншоты сериала


    --
    Скачать .torrent

    Скачать торрент-файл бесплатно и на максимальной скорости!

    Как скачивать? · Что такое торрент? · Рейтинг и ограничения

    !ВНИМАНИЕ!
    Сайт не распространяет и не хранит электронные версии произведений, а занимается лишь лишь предоставлением доступа к создаваемому пользователями каталогу ссылок на торрент-файлы, которые содержат только списки хеш-сумм, убедительная просьба с жалобами обращаться напрямую к пользователю. Файлы для обмена на трекере предоставлены пользователями сайта, и администрация не несёт ответственности за их содержание. Просьба не заливать файлы, защищенные авторскими правами, а также файлы нелегального содержания!


    _________________
    [Профиль] [ЛС]
    Показать сообщения:    
    Ответить на тему

    Текущее время: Сегодня, в 14:58

    Часовой пояс: GMT + 2



    Вы не можете начинать темы
    Вы не можете отвечать на сообщения
    Вы не можете редактировать свои сообщения
    Вы не можете удалять свои сообщения
    Вы не можете голосовать в опросах
    Вы не можете прикреплять файлы к сообщениям
    Вы не можете скачивать файлы