BitTorrentTracker PerecTracker.org
BitTorrentTracker PerecTracker.org
    
Регистрация  ·  Вход
 
 · 
Забыли пароль?

  • Нулевой взвод / Сектор Зеро / Section Zero / Сезон: 1 / Серии: 1-8 из 8 (Оливье Маршаль, Уильям Лоуренс) [2016, Фантастика, драма, триллер, приключения, HDTVRip] MVO (Первый канал)

    Ответить на тему
     
    Автор Сообщение

    rechyn

    Создавать темы 26-Июл-2016 19:34

           

    [Цитировать]

    Нулевой взвод | Сектор Зеро | Section Zero-Год выпуска: 2016
    Страна: Франция
    Жанр: Фантастика, драма, триллер, приключения
    Продолжительность: 8 x ~ 00:45:00-Перевод: Профессиональный (многоголосый закадровый) | Первый канал-Режиссёр: Оливье Маршаль, Уильям Лоуренс-В ролях: Чеки Карио, Ола Рапас, Катрин Маршал, Паскаль Грегори, Франсис Рено, Константин Бальзан и др.-Описание: Гигантские транснациональные корпорации захватили власть на планете и сражаются за последние оставшиеся на Земле водные запасы. Среди таких корпораций, насаждающих в подконтрольных странах тоталитарный режим, лидирует стремительно растущая корпорация Прометей. Одна из целей корпорации — замена государственной полиции на частную армию «Чёрный эскадрон», чей глава — Монро в свою очередь мечтает заменить солдат андроидами. Монро противостоит полицейский-идеалист Сайрус, чья цель — спасти мир, каким он его знал, от полного исчезновения. Ради этой цели Сайрус формирует «Секцию Зеро» — группу, которая пойдёт на всё, использует любые методы, в том числе незаконные и жестокие, ради достижения великой цели.-Доп. информация: Присутствуют аудио, текстовые вставки рекламы
    -- --| Ссылка на предыдущие и альтернативные раздачи--Качество: HDTVRip
    Формат: AVI
    Видео: MPEG4, XviD, 720x384 (1.875), 25.000 fps, 1 792 Kbps (0.259 bit/pixel)
    Аудио: AC-3, 48.0 KHz, 2 ch, 192 Kbps, CBR
    Субтитры: Французские (форсированные, неотключаемые) на иностранную речь.
    -

    MediaInfo

    E:\Сериалы\Nulevoy.Vzvod.s01e01.2016.P.HDRip.avi
       General
          Complete name : E:\Сериалы\Nulevoy.Vzvod.s01e01.2016.P.HDRip.avi
          Format : AVI
          Format/Info : Audio Video Interleave
          File size : 665 MiB
          Duration : 46mn 37s
          Overall bit rate : 1 994 Kbps
          Writing application : VirtualDubMod 1.5.10.3 | www.virtualdub-fr.org || (build 2550/release)
          Writing library : VirtualDub build 35491/release
       Video #0
          ID : 0
          Format : MPEG-4 Visual
          Format profile : Advanced Simple@L5
          Format settings, BVOP : 2
          Format settings, QPel : No
          Format settings, GMC : No warppoints
          Format settings, Matrix : Default (MPEG)
          Codec ID : XVID
          Codec ID/Hint : XviD
          Duration : 46mn 37s
          Bit rate : 1 792 Kbps
          Width : 720 pixels
          Height : 384 pixels
          Display aspect ratio : 1.85:1
          Frame rate : 25.000 fps
          Color space : YUV
          Chroma subsampling : 4:2:0
          Bit depth : 8 bits
          Scan type : Progressive
          Compression mode : Lossy
          Bits/(Pixel*Frame) : 0.259
          Stream size : 598 MiB (90%)
          Writing library : XviD 1.2.1 (UTC 2008-12-04)
       Audio #1
          ID : 1
          Format : AC-3
          Format/Info : Audio Coding 3
          Mode extension : CM (complete main)
          Format settings, Endianness : Big
          Codec ID : 2000
          Duration : 46mn 37s
          Bit rate mode : Constant
          Bit rate : 192 Kbps
          Channel(s) : 2 channels
          Channel positions : Front: L R
          Sampling rate : 48.0 KHz
          Bit depth : 16 bits
          Compression mode : Lossy
          Delay relative to video : 25ms
          Stream size : 64.0 MiB (10%)
          Alignment : Split accross interleaves
          Interleave, duration : 40 ms (1.00 video frame)
          Interleave, preload duration : 500 ms

    Скриншоты


    Скачать .torrent

    Скачать торрент-файл бесплатно и на максимальной скорости!

    Как скачивать? · Что такое торрент? · Рейтинг и ограничения

    !ВНИМАНИЕ!
    Сайт не распространяет и не хранит электронные версии произведений, а занимается лишь лишь предоставлением доступа к создаваемому пользователями каталогу ссылок на торрент-файлы, которые содержат только списки хеш-сумм, убедительная просьба с жалобами обращаться напрямую к пользователю. Файлы для обмена на трекере предоставлены пользователями сайта, и администрация не несёт ответственности за их содержание. Просьба не заливать файлы, защищенные авторскими правами, а также файлы нелегального содержания!


    _________________
    [Профиль] [ЛС]
    Показать сообщения:    
    Ответить на тему

    Текущее время: Сегодня, в 11:51

    Часовой пояс: GMT + 2



    Вы не можете начинать темы
    Вы не можете отвечать на сообщения
    Вы не можете редактировать свои сообщения
    Вы не можете удалять свои сообщения
    Вы не можете голосовать в опросах
    Вы не можете прикреплять файлы к сообщениям
    Вы не можете скачивать файлы