BitTorrentTracker PerecTracker.org
BitTorrentTracker PerecTracker.org
    
Регистрация  ·  Вход
 
 · 
Забыли пароль?

  • Проповедник / Preacher (Сезон 1, Серия 1-10 из 10) (Сет Роген, Эван Голдберг) [2016, Фэнтези, драма, детектив, приключения , WEB-DLRip 1080p ] [DD5.1] [MVO] [AlexFilm,,LostFilm,NewStudiо,BaibaKo,FocusStudiо,Kubik V Kube, English + Subs Rus,ENG]

    Ответить на тему
     
    Автор Сообщение

    Враг Нароода

    Создавать темы 26-Июл-2016 15:01

           

    [Цитировать]

    rp bk----Проповедник / Preacher Сезон 1, Серия 1-10 из 10 ----Год выпуска: 2016
    Выпущено: США,AMC Studios
    Жанр: Фэнтези, драма, детектив, приключения
    Продолжительность: 00:48:00
    Сезон:1
    Серия: 1-10
    Количество серий в сезоне: 10
    Озвучка 1: Профессиональный многоголосый - AlexFilm-Русский
    Озвучка 2: Профессиональный многоголосый - LostFilm-Русский
    Озвучка 3: Профессиональный многоголосый - NewStudiо-Русский
    Озвучка 4: Профессиональный многоголосый -BaibaKo-Русский
    Озвучка 5: Профессиональный многоголосый - Jaskier-Русский
    Озвучка 6: Профессиональный многоголосый - FocusStudiо-Русский
    Озвучка 7: Профессиональный многоголосый -Kubik V Kube-Русский
    Озвучка 8: Профессиональный многоголосый -Английский -Оригинал
    Субтитры: Русские ,Английские
    ----Режиссеры:
    Сет Роген, Эван Голдберг--Сценаристы:
    Стив Диллон, Сет Роген, Гарт Эннис, Эван Голдберг, Сэм Кэтлин.--В ролях: Доминик Купер (Джесси Кастер), Рут Негга (Тюльпан), Джозеф Гилган (Кэссиди), У. Эрл Браун (Хьюго Рут), Люси Гриффитс (Эмили), Йен Коллетти (Жопорожец), Дерек Уилсон (Донни Шенк).--Джесси Кастер — проповедник, который, следуя данному отцу обещанию, вернулся в родной Энвиль, штат Техас, дабы наставлять местное население на путь истинный. Но грешников здесь оказалось столько, что Джесси настиг кризис веры, доведший его до рукоприкладства. Неизвестно, чем бы закончилось такое отпущение грехов, если бы в пастыря однажды не вселилась неведомая сущность. Теперь у главного героя есть необычные способности и новая миссия — найти Бога, вероломно покинувшего небеса. Но искать Господа в одиночку сложно и не особо интересно, поэтому себе в компаньоны Кастер берет бывшую подругу (и единственную настоящую любовь) Тюльпан и ирландского вампира-выпивоху Кэссиди. Тюльпан всегда получает, что ей нужно, даже если ради этого приходится обманывать, грабить или убивать, а Кэссиди в силу своего характера готов в любой момент пуститься во все тяжкие ради острых ощущений и веселого времяпрепровождения. В общем, компания для поисков Бога подобралась самая подходящая. Впереди у этой троицы — километры дорог и неожиданные встречи с самыми колоритными обитателями нашего и потустороннего миров. Каждая из них таит в себе нешуточную угрозу. Джесси и его друзьям предстоит помериться силами не только с разными бессмертными сущностями и падшими ангелами, но и с секретными организациями, и что ждет пастыря в конце пути, известно только тому, кого он ищет...----Качество :WEB-DLRip-AVC 1080p
    Формат: MKV
    Видео кодек: H264
    Видео: 5090Кбит/сек,1916х1076(16.9),в 23.976кадр/сек,AVC(High@L4)(CABAC/4 Ref Frames)
    Аудио Кодек:AC3
    Аудио #1:AC3 , 384 Kbps, 48.0 KHz, 6 ch- -AlexFilm-Русский
    Аудио #2:AC3 , 384 Kbps, 48.0 KHz, 6 ch- -LostFilm-Русский
    Аудио #3: AC3, 384 Kbps, 48.0 KHz, 6 ch - NewStudio-Русский
    Аудио #4: AC3, 384 Kbps, 48.0 KHz, 6 ch - BaibaKo-Русский
    Аудио #5: AC3, 384 Kbps, 48.0 KHz, 6 ch - Jaskier-Русский
    Аудио #6: AC3, 384 Kbps, 48.0 KHz, 6 ch - FocusStudiо-Русский
    Аудио #7: AC3, 384 Kbps, 48.0 KHz, 6 ch - Kubik V Kube-Русский
    Аудио #8: AC3, 384 Kbps, 48.0 KHz,6 ch - - English-Английский -Оригинал--

    Доп. информация:

    Звуковая дорожка сделана путем наложения чистого голоса озвучивателей на центральный канал оригинальной дорожки. Качество идентично звуковой дорожке.
    --

    Список эпизодов сезона


    01 Пилот (Pilot)
    02 Узри (See)
    03 Возможности (The Possibilities)
    04 Паучья банка (Monster Swamp)
    05 Юг снова встанет с колен (South Will Rise Again)
    06 Закатный (Sundowner)
    07 Исчез (He Gone)
    08 Эль Валеро (El Valero)
    09 Допой свою песню (Finish the Song)
    10
    --

    MediaInfo сезона

    Общее
    Уникальный идентификатор : 174450206368278583200806382930628276900 (0x833DE33B6302C491A2B4CB875F8972A4)
    Полное имя : D:\Ф Э Н Т Е З И\ПРОПОВЕДНИК\PREACHER_2016_S01_[AlexFilm_LostFilm_NewStudiо_BaibaKo_ Jaskier_FocusStudio_Kubik V Kube]_DD5.1_N.B_WEB-DL_1080_Rus_Eng\Preacher_2016_S01Е01_DD5.1_N.B_WEB-DL_1080_7хRus_Eng.mkv
    Формат : Matroska
    Версия формата : Version 4 / Version 2
    Размер файла : 3,70 Гбайт
    Продолжительность : 1 ч. 4 м.
    Общий поток : 8166 Кбит/сек
    Название фильма : Preacher_2016_S01Е01_DD5.1_N.B_WEB-DL_1080_7хRus_Eng
    Дата кодирования : UTC 2016-07-13 21:01:06
    Программа кодирования : mkvmerge v9.2.0 ('Photograph') 64bit
    Библиотека кодирования : libebml v1.3.3 + libmatroska v1.4.4
    Видео
    Идентификатор : 1
    Формат : AVC
    Формат/Информация : Advanced Video Codec
    Профиль формата : High@L4
    Параметр CABAC формата : Да
    Параметр ReFrames формата : 4 кадра
    Идентификатор кодека : V_MPEG4/ISO/AVC
    Продолжительность : 1 ч. 4 м.
    Битрейт : 5090 Кбит/сек
    Ширина : 1916 пикселей
    Высота : 1076 пикселей
    Соотношение сторон : 16:9
    Режим частоты кадров : Постоянный
    Частота кадров : 23,976 (23976/1000) кадра/сек
    Цветовое пространство : YUV
    Субдискретизация насыщенности : 4:2:0
    Битовая глубина : 8 бит
    Тип развёртки : Прогрессивная
    Бит/(Пиксели*Кадры) : 0.103
    Размер потока : 2,30 Гбайт (62%)
    Заголовок : Preacher_2016_S01Е01_DD5.1_N.B_WEB-DL_1080_7хRus_Eng
    Язык : English
    Default : Да
    Forced : Нет
    Цветовой диапазон : Limited
    Основные цвета : BT.709
    Характеристики трансфера : BT.709
    Коэффициенты матрицы : BT.709
    Аудио #1
    Идентификатор : 5
    Формат : AC-3
    Формат/Информация : Audio Coding 3
    Расширение режима : CM (complete main)
    Параметр Endianness формата : Big
    Идентификатор кодека : A_AC3
    Продолжительность : 1 ч. 4 м.
    Вид битрейта : Постоянный
    Битрейт : 384 Кбит/сек
    Каналы : 6 каналов
    Расположение каналов : Front: L C R, Side: L R, LFE
    Частота : 48,0 КГц
    Частота кадров : 31,250 кадров/сек (1536 spf)
    Метод сжатия : С потерями
    Размер потока : 178 Мбайт (5%)
    Заголовок : MVO AlexFilm DD5.1@384kbps
    Язык : Russian
    Default : Да
    Forced : Нет
    Аудио #2
    Идентификатор : 6
    Формат : AC-3
    Формат/Информация : Audio Coding 3
    Расширение режима : CM (complete main)
    Параметр Endianness формата : Big
    Идентификатор кодека : A_AC3
    Продолжительность : 1 ч. 4 м.
    Вид битрейта : Постоянный
    Битрейт : 384 Кбит/сек
    Каналы : 6 каналов
    Расположение каналов : Front: L C R, Side: L R, LFE
    Частота : 48,0 КГц
    Частота кадров : 31,250 кадров/сек (1536 spf)
    Метод сжатия : С потерями
    Размер потока : 178 Мбайт (5%)
    Заголовок : MVO LostFilm DD5.1@384kbps
    Язык : Russian
    Default : Нет
    Forced : Нет
    Аудио #3
    Идентификатор : 7
    Формат : AC-3
    Формат/Информация : Audio Coding 3
    Расширение режима : CM (complete main)
    Параметр Endianness формата : Big
    Идентификатор кодека : A_AC3
    Продолжительность : 1 ч. 4 м.
    Вид битрейта : Постоянный
    Битрейт : 384 Кбит/сек
    Каналы : 6 каналов
    Расположение каналов : Front: L C R, Side: L R, LFE
    Частота : 48,0 КГц
    Частота кадров : 31,250 кадров/сек (1536 spf)
    Метод сжатия : С потерями
    Размер потока : 178 Мбайт (5%)
    Заголовок : MVO NewStudio DD5.1@384kbps
    Язык : Russian
    Default : Нет
    Forced : Нет
    Аудио #4
    Идентификатор : 8
    Формат : AC-3
    Формат/Информация : Audio Coding 3
    Расширение режима : CM (complete main)
    Параметр Endianness формата : Big
    Идентификатор кодека : A_AC3
    Продолжительность : 1 ч. 4 м.
    Вид битрейта : Постоянный
    Битрейт : 384 Кбит/сек
    Каналы : 6 каналов
    Расположение каналов : Front: L C R, Side: L R, LFE
    Частота : 48,0 КГц
    Частота кадров : 31,250 кадров/сек (1536 spf)
    Метод сжатия : С потерями
    Размер потока : 178 Мбайт (5%)
    Заголовок : MVO BaibaKo DD5.1@384kbps
    Язык : Russian
    Default : Нет
    Forced : Нет
    Аудио #5
    Идентификатор : 9
    Формат : AC-3
    Формат/Информация : Audio Coding 3
    Расширение режима : CM (complete main)
    Параметр Endianness формата : Big
    Идентификатор кодека : A_AC3
    Продолжительность : 1 ч. 4 м.
    Вид битрейта : Постоянный
    Битрейт : 384 Кбит/сек
    Каналы : 6 каналов
    Расположение каналов : Front: L C R, Side: L R, LFE
    Частота : 48,0 КГц
    Частота кадров : 31,250 кадров/сек (1536 spf)
    Метод сжатия : С потерями
    Размер потока : 178 Мбайт (5%)
    Заголовок : MVO FocusStudio DD5.1@384kbps
    Язык : Russian
    Default : Нет
    Forced : Нет
    Аудио #6
    Идентификатор : 10
    Формат : AC-3
    Формат/Информация : Audio Coding 3
    Расширение режима : CM (complete main)
    Параметр Endianness формата : Big
    Идентификатор кодека : A_AC3
    Продолжительность : 1 ч. 4 м.
    Вид битрейта : Постоянный
    Битрейт : 384 Кбит/сек
    Каналы : 6 каналов
    Расположение каналов : Front: L C R, Side: L R, LFE
    Частота : 48,0 КГц
    Частота кадров : 31,250 кадров/сек (1536 spf)
    Метод сжатия : С потерями
    Размер потока : 178 Мбайт (5%)
    Заголовок : MVO Jaskier DD5.1@384kbps
    Язык : Russian
    Default : Нет
    Forced : Нет
    Аудио #7
    Идентификатор : 11
    Формат : AC-3
    Формат/Информация : Audio Coding 3
    Расширение режима : CM (complete main)
    Параметр Endianness формата : Big
    Идентификатор кодека : A_AC3
    Продолжительность : 1 ч. 4 м.
    Вид битрейта : Постоянный
    Битрейт : 384 Кбит/сек
    Каналы : 6 каналов
    Расположение каналов : Front: L C R, Side: L R, LFE
    Частота : 48,0 КГц
    Частота кадров : 31,250 кадров/сек (1536 spf)
    Метод сжатия : С потерями
    Размер потока : 178 Мбайт (5%)
    Заголовок : MVO Kubik V Kube DD5.1@384kbps
    Язык : Russian
    Default : Нет
    Forced : Нет
    Аудио #8
    Идентификатор : 12
    Формат : AC-3
    Формат/Информация : Audio Coding 3
    Расширение режима : CM (complete main)
    Параметр Endianness формата : Big
    Идентификатор кодека : A_AC3
    Продолжительность : 1 ч. 4 м.
    Вид битрейта : Постоянный
    Битрейт : 384 Кбит/сек
    Каналы : 6 каналов
    Расположение каналов : Front: L C R, Side: L R, LFE
    Частота : 48,0 КГц
    Частота кадров : 31,250 кадров/сек (1536 spf)
    Метод сжатия : С потерями
    Размер потока : 178 Мбайт (5%)
    Заголовок : Original DD5.1@384kbps
    Язык : English
    Default : Нет
    Forced : Нет
    Текст #1
    Идентификатор : 2
    Формат : ASS
    Идентификатор кодека : S_TEXT/ASS
    Идентификатор кодека/Информация : Advanced Sub Station Alpha
    Продолжительность : 2 м. 41 с.
    Битрейт : 104 бит/сек
    Count of elements : 34
    Метод сжатия : Без потерь
    Размер потока : 2,07 Кбайт (0%)
    Заголовок : Forced
    Язык : Russian
    Default : Да
    Forced : Да
    Текст #2
    Идентификатор : 3
    Формат : UTF-8
    Идентификатор кодека : S_TEXT/UTF8
    Идентификатор кодека/Информация : UTF-8 Plain Text
    Продолжительность : 1 ч. 3 м.
    Битрейт : 80 бит/сек
    Count of elements : 792
    Размер потока : 37,2 Кбайт (0%)
    Заголовок : Rus
    Язык : Russian
    Default : Нет
    Forced : Нет
    Текст #3
    Идентификатор : 4
    Формат : UTF-8
    Идентификатор кодека : S_TEXT/UTF8
    Идентификатор кодека/Информация : UTF-8 Plain Text
    Продолжительность : 1 ч. 2 м.
    Битрейт : 47 бит/сек
    Count of elements : 769
    Размер потока : 21,9 Кбайт (0%)
    Заголовок : Eng
    Язык : English
    Default : Нет
    Forced : Нет
    --

    Скриншоты

    ----

    Как закачать отдельный файл

    1. Открыть торрент
    2. Снять галки с тех файлов торрента, которые мы не хотим закачивать. Оставляем только на нужных нам файлах (файле).
    3. Нажать О.К.
    В клиенте utorrent
    Инструкция
    1) Открыть торрент

    2) Снять галки с тех файлов торрента, которые мы не хотим закачивать:
    * либо вручную, снимая с каждого файла галку( скрин №1)
    * либо, нажав кнопку "Снять метки (Select None)", сняв сразу со всех файлов(скрин №2)
    №1

    №2

    Оставляем только на нужных нам файлах (файле).

    3)Нажать О.К
    ------Внимание!!! 03.08. 2016. РАЗДАЧА ОБНОВЛЕНА. ОБНОВИТЕ ТОРЕНТ ФАЙЛ.ПРИЯТНОГО ПРОСМОТРА . ФИНАЛ СЕЗОНА--Релиз от: Nikolai.Baranov & PIRATIYA --------
    Скачать .torrent

    Скачать торрент-файл бесплатно и на максимальной скорости!

    Как скачивать? · Что такое торрент? · Рейтинг и ограничения

    !ВНИМАНИЕ!
    Сайт не распространяет и не хранит электронные версии произведений, а занимается лишь лишь предоставлением доступа к создаваемому пользователями каталогу ссылок на торрент-файлы, которые содержат только списки хеш-сумм, убедительная просьба с жалобами обращаться напрямую к пользователю. Файлы для обмена на трекере предоставлены пользователями сайта, и администрация не несёт ответственности за их содержание. Просьба не заливать файлы, защищенные авторскими правами, а также файлы нелегального содержания!


    _________________

    Легко быть оптимистом, когда судьба не валит с ног тяжелыми ударами, а лишь иногда легонько шлепает по заднице.
    [Профиль] [ЛС]

    -746

    Создавать темы 06-Авг-2016 22:00 (спустя 11 дней)

           

    Топік був перенесений з форуму Зарубежные сериалы у форум Зарубежные сериалы (HD Video)

    rechyn

    _________________
    Как бы ты высоко не летал, не забывай, с кем ты ползал..
     
    Показать сообщения:    
    Ответить на тему

    Текущее время: Сегодня, в 12:45

    Часовой пояс: GMT + 2



    Вы не можете начинать темы
    Вы не можете отвечать на сообщения
    Вы не можете редактировать свои сообщения
    Вы не можете удалять свои сообщения
    Вы не можете голосовать в опросах
    Вы не можете прикреплять файлы к сообщениям
    Вы не можете скачивать файлы