BitTorrentTracker PerecTracker.org
BitTorrentTracker PerecTracker.org
    
Регистрация  ·  Вход
 
 · 
Забыли пароль?

  • Мир Юрского периода / Jurassic World (Колин Треворроу / Colin Trevorrow) [2015, США, Китай, фантастика, приключения, боевик, BDRip-AVC] Dub + Sub Rus

    Ответить на тему
     
    Автор Сообщение

    Light

    Создавать темы 26-Июл-2016 11:29

           

    [Цитировать]

    Мир Юрского периода
    Jurassic World
    -Год выпуска: 2015
    Страна: США, Китай / Universal Pictures
    Жанр: фантастика, приключения, боевик
    Продолжительность: 02:04:20
    Перевод: Профессиональный (дублированный)
    Субтитров: русские-Режиссер: Колин Треворроу / Colin Trevorrow
    В ролях: Крис Пратт, Брайс Даллас Ховард, Ник Дж. Робинсон, Тай Симпкинс, Винсент Д’Онофрио, Ирфан Кхан, Омар Си, Б.Д. Вонг, Джейк Джонсон, Джуди Грир.
    Описание: Действие происходит через 22 года после событий Парка Юрского периода. На острове Нублар функционирует парк, задуманный Джоном Хэммондом. Но к этому времени посещаемость уже начинает падать, и компания — владелец парка решает открыть новый аттракцион, чтобы привлечь посетителей. И вот снова тысячи людей спешат увидеть Мир Юрского периода, но безопасное на первый взгляд развлечение может обернуться угрозой для всего человечества...-Мир юрского периода (англ. Jurassic World) — американский научно-фантастический фильм, четвёртый фильм в серии Парк юрского периода.-Релиз от: HELLYWOOD
    Автор рипа: potroks-Качество видео: BDRip-AVC (исходник: JURASSIC_WORLD_HDCLUB)
    Формат видео: MKV | Sample
    Видео: 944x472 (2,000), 23.976 fps, x264@L4.1 ~2126 kbps avg, 0.20 bit/pixel
    Аудио: 48 kHz, AC3 Dolby Digital, 3/2 (L,C,R,l,r) + LFE ch, ~384.00 kbps avg | BD CEE
    Субтитры: русские форсированные, русские полные

    Инфо

    Формат : Matroska
    Версия формата : Version 4 / Version 2
    Размер файла : 2,18 Гбайт
    Продолжительность : 2 ч. 4 м.
    Общий поток : 2511 Кбит/сек
    Название фильма : Jurassic World (2015) - HELLYWOOD
    Дата кодирования : UTC 2015-09-29 16:04:37
    Программа кодирования : mkvmerge v5.9.0 ('On The Loose') built on Dec 15 2012 16:39:58
    Библиотека кодирования : libebml v1.3.0 + libmatroska v1.4.0
    Видео
    Идентификатор : 1
    Формат : AVC
    Формат/Информация : Advanced Video Codec
    Профиль формата : High@L4.1
    Параметр CABAC формата : Да
    Параметр ReFrames формата : 12 кадров
    Идентификатор кодека : V_MPEG4/ISO/AVC
    Продолжительность : 2 ч. 4 м.
    Битрейт : 2126 Кбит/сек
    Ширина : 944 пикселя
    Высота : 472 пикселя
    Соотношение сторон : 2,000
    Режим частоты кадров : Постоянный
    Частота кадров : 23,976 (24000/1001) кадра/сек
    Цветовое пространство : YUV
    Субдискретизация насыщенности : 4:2:0
    Битовая глубина : 8 бит
    Тип развёртки : Прогрессивная
    Бит/(Пиксели*Кадры) : 0.199
    Размер потока : 1,80 Гбайт (83%)
    Заголовок : potroks
    Библиотека кодирования : x264 core 148 r2597M e86f3a1
    Настройки программы : cabac=1 / ref=12 / deblock=1:-2:-2 / analyse=0x3:0x133 / me=umh / subme=11 / psy=1 / psy_rd=1.00:0.00 / mixed_ref=1 / me_range=48 / chroma_me=1 / trellis=2 / 8x8dct=1 / cqm=0 / deadzone=21,11 / fast_pskip=0 / chroma_qp_offset=-2 / threads=10 / lookahead_threads=2 / sliced_threads=0 / nr=0 / decimate=1 / interlaced=0 / bluray_compat=0 / constrained_intra=0 / bframes=13 / b_pyramid=2 / b_adapt=2 / b_bias=0 / direct=3 / weightb=1 / open_gop=0 / weightp=2 / keyint=250 / keyint_min=23 / scenecut=40 / intra_refresh=0 / rc=2pass / mbtree=0 / bitrate=2126 / ratetol=1.0 / qcomp=0.70 / qpmin=0 / qpmax=69 / qpstep=4 / cplxblur=20.0 / qblur=0.5 / ip_ratio=1.40 / pb_ratio=1.30 / aq=1:0.80
    Язык : English
    Default : Да
    Forced : Нет
    Аудио
    Идентификатор : 2
    Формат : AC-3
    Формат/Информация : Audio Coding 3
    Расширение режима : CM (complete main)
    Параметр Endianness формата : Big
    Идентификатор кодека : A_AC3
    Продолжительность : 2 ч. 4 м.
    Вид битрейта : Постоянный
    Битрейт : 384 Кбит/сек
    Каналы : 6 каналов
    Расположение каналов : Front: L C R, Side: L R, LFE
    Частота : 48,0 КГц
    Частота кадров : 31,250 кадров/сек (1536 spf)
    Метод сжатия : С потерями
    Размер потока : 341 Мбайт (15%)
    Заголовок : Dub | DD 5.1 @ 384 kbps - Blu-Ray CEE
    Язык : Russian
    Default : Да
    Forced : Нет
    Текст #1
    Идентификатор : 3
    Формат : UTF-8
    Идентификатор кодека : S_TEXT/UTF8
    Идентификатор кодека/Информация : UTF-8 Plain Text
    Заголовок : Forced
    Язык : Russian
    Default : Да
    Forced : Нет
    Текст #2
    Идентификатор : 4
    Формат : UTF-8
    Идентификатор кодека : S_TEXT/UTF8
    Идентификатор кодека/Информация : UTF-8 Plain Text
    Заголовок : Blu-Ray
    Язык : Russian
    Default : Нет
    Forced : Нет
    Меню
    00:00:00.000 : :(01)00:00:00:000
    00:06:59.168 : :(02)00:06:59:168
    00:11:01.827 : :(03)00:11:01:827
    00:18:28.440 : :(04)00:18:28:440
    00:25:34.866 : :(05)00:25:34:866
    00:31:20.837 : :(06)00:31:20:837
    00:39:23.861 : :(07)00:39:23:861
    00:44:07.853 : :(08)00:44:07:853
    00:48:57.225 : :(09)00:48:57:225
    00:55:51.056 : :(10)00:55:51:056
    01:01:21.344 : :(11)01:01:21:344
    01:09:50.560 : :(12)01:09:50:561
    01:15:25.479 : :(13)01:15:25:479
    01:23:51.860 : :(14)01:23:51:860
    01:30:14.700 : :(15)01:30:14:700
    01:36:45.424 : :(16)01:36:45:424
    01:41:15.652 : :(17)01:41:15:652
    01:47:35.282 : :(18)01:47:35:282
    01:53:06.029 : :(19)01:53:06:029
    01:55:37.555 : :(20)01:55:37:555

    Скриншоты

    Скачать .torrent

    Скачать торрент-файл бесплатно и на максимальной скорости!

    Как скачивать? · Что такое торрент? · Рейтинг и ограничения

    !ВНИМАНИЕ!
    Сайт не распространяет и не хранит электронные версии произведений, а занимается лишь лишь предоставлением доступа к создаваемому пользователями каталогу ссылок на торрент-файлы, которые содержат только списки хеш-сумм, убедительная просьба с жалобами обращаться напрямую к пользователю. Файлы для обмена на трекере предоставлены пользователями сайта, и администрация не несёт ответственности за их содержание. Просьба не заливать файлы, защищенные авторскими правами, а также файлы нелегального содержания!


    _________________
    [Профиль] [ЛС]
    Показать сообщения:    
    Ответить на тему

    Текущее время: Сегодня, в 04:22

    Часовой пояс: GMT + 2



    Вы не можете начинать темы
    Вы не можете отвечать на сообщения
    Вы не можете редактировать свои сообщения
    Вы не можете удалять свои сообщения
    Вы не можете голосовать в опросах
    Вы не можете прикреплять файлы к сообщениям
    Вы не можете скачивать файлы