BitTorrentTracker PerecTracker.org
BitTorrentTracker PerecTracker.org
    
Регистрация  ·  Вход
 
 · 
Забыли пароль?

  • 007: СПЕКТР / Spectre (Сэм Мендес / Sam Mendes) [2015, Великобритания, США, боевик, триллер, приключения, BDRip-AVC] Dub + Sub Rus

    Ответить на тему
     
    Автор Сообщение

    Light

    Создавать темы 25-Июл-2016 10:18

           

    [Цитировать]

    007: СПЕКТР / Spectre-Страна: Великобритания, США / Columbia Pictures
    Жанр: боевик, триллер, приключения
    Год выпуска: 2015
    Продолжительность: 02:28:07
    Перевод: Профессиональный (дублированный)
    Cубтитры: русские-Режиссер: Сэм Мендес / Sam Mendes
    В ролях: Дэниэл Крэйг, Кристоф Вальц, Леа Сейду, Рэйф Файнс, Моника Беллуччи, Бен Уишоу, Наоми Харрис, Дэйв Батиста, Эндрю Скотт, Рори Киннер, Еспер Кристенсен, Алессандро Кремона, Стефани Сигман, Теноч Уэрта, Адриана Пас, Доменико Фортунато, Йен Бонар, Там Уильямс, Ричард Бенхем, Пип Картер.
    Описание: Зашифрованное послание из неизвестного источника выводит Бонда на след зловещей глобальной организации под кодовым названием СПЕКТР, в то время как М пытается спасти секретную разведывательную службу от ликвидации.-«007: Спектр» (англ. Spectre) — двадцать четвёртый фильм из серии фильмов про вымышленного агента 007 британской разведки Джеймса Бонда, героя романов Яна Флеминга. Роль самого Бонда в четвёртый и последний раз исполнил Дэниел Крэйг, а роль новой девушки и напарницы Бонда — французская актриса Леа Сейду. Фильм является продолжением предыдущей ленты (Координаты «Скайфолл»), а также объединяет все фильмы с участием Крэйга в единую сюжетную линию. Фильм был отмечен премией Оскар за лучшую песню к фильму.-Релиз от: HELLYWOOD
    Автор рипа: potroks-Качество видео: BDRip-AVC (Spectre.2015.BluRay.Remux.1080p.AVC.DTS-HD.MA.7.1)
    Формат видео: MKV | Sample
    Видео: 936x392 (2.40:1), 23.976 fps, x264@L4.1 ~1220 kbps avg, 0.14 bit/pixel
    Аудио: 48 kHz, AC3 Dolby Digital, 2/0 (L,R) ch, 192.00 kbps avg | BD CEE
    Субтиты: русские форсированные, русские полные

    Инфо

    Формат : Matroska
    Версия формата : Version 4 / Version 2
    Размер файла : 1,46 Гбайт
    Продолжительность : 2 ч. 28 м.
    Общий поток : 1413 Кбит/сек
    Название фильма : Spectre (2015) - HELLYWOOD
    Дата кодирования : UTC 2016-02-12 00:11:29
    Программа кодирования : mkvmerge v5.9.0 ('On The Loose') built on Dec 15 2012 16:39:58
    Библиотека кодирования : libebml v1.3.0 + libmatroska v1.4.0
    Видео
    Идентификатор : 1
    Формат : AVC
    Формат/Информация : Advanced Video Codec
    Профиль формата : High@L4.1
    Параметр CABAC формата : Да
    Параметр ReFrames формата : 12 кадров
    Идентификатор кодека : V_MPEG4/ISO/AVC
    Продолжительность : 2 ч. 28 м.
    Битрейт : 1220 Кбит/сек
    Ширина : 936 пикселей
    Высота : 392 пикселя
    Соотношение сторон : 2,40:1
    Режим частоты кадров : Постоянный
    Частота кадров : 23,976 кадра/сек
    Цветовое пространство : YUV
    Субдискретизация насыщенности : 4:2:0
    Битовая глубина : 8 бит
    Тип развёртки : Прогрессивная
    Бит/(Пиксели*Кадры) : 0.139
    Размер потока : 1,23 Гбайт (84%)
    Заголовок : potroks
    Библиотека кодирования : x264 core 146 r2538 121396c
    Настройки программы : cabac=1 / ref=12 / deblock=1:-2:-2 / analyse=0x3:0x113 / me=umh / subme=11 / psy=1 / psy_rd=1.00:0.05 / mixed_ref=1 / me_range=48 / chroma_me=1 / trellis=2 / 8x8dct=1 / cqm=0 / deadzone=21,11 / fast_pskip=0 / chroma_qp_offset=-3 / threads=9 / lookahead_threads=2 / sliced_threads=0 / nr=0 / decimate=0 / interlaced=0 / bluray_compat=0 / constrained_intra=0 / bframes=12 / b_pyramid=2 / b_adapt=2 / b_bias=0 / direct=3 / weightb=1 / open_gop=0 / weightp=2 / keyint=240 / keyint_min=23 / scenecut=40 / intra_refresh=0 / rc_lookahead=150 / rc=2pass / mbtree=1 / bitrate=1220 / ratetol=1.0 / qcomp=0.70 / qpmin=0 / qpmax=69 / qpstep=4 / cplxblur=20.0 / qblur=0.5 / vbv_maxrate=14000 / vbv_bufsize=14000 / nal_hrd=none / filler=0 / ip_ratio=1.35 / aq=2:0.80
    Язык : English
    Default : Да
    Forced : Нет
    Аудио
    Идентификатор : 2
    Формат : AC-3
    Формат/Информация : Audio Coding 3
    Расширение режима : CM (complete main)
    Параметр Endianness формата : Big
    Идентификатор кодека : A_AC3
    Продолжительность : 2 ч. 28 м.
    Вид битрейта : Постоянный
    Битрейт : 192 Кбит/сек
    Каналы : 2 канала
    Расположение каналов : Front: L R
    Частота : 48,0 КГц
    Частота кадров : 31,250 кадров/сек (1536 spf)
    Метод сжатия : С потерями
    Размер потока : 203 Мбайт (14%)
    Заголовок : Dub | DD 2.0 @ 192 kbps - Blu-Ray CEE
    Язык : Russian
    Default : Да
    Forced : Нет
    Текст #1
    Идентификатор : 3
    Формат : UTF-8
    Идентификатор кодека : S_TEXT/UTF8
    Идентификатор кодека/Информация : UTF-8 Plain Text
    Заголовок : Forced
    Язык : Russian
    Default : Да
    Forced : Нет
    Текст #2
    Идентификатор : 4
    Формат : UTF-8
    Идентификатор кодека : S_TEXT/UTF8
    Идентификатор кодека/Информация : UTF-8 Plain Text
    Заголовок : Blu-Ray
    Язык : Russian
    Default : Нет
    Forced : Нет
    Меню
    00:00:00.000 : :Chapter 1
    00:06:09.118 : :Chapter 2
    00:13:04.784 : :Chapter 3
    00:18:58.470 : :Chapter 4
    00:24:46.776 : :Chapter 5
    00:28:04.057 : :Chapter 6
    00:32:15.558 : :Chapter 7
    00:36:58.591 : :Chapter 8
    00:41:56.639 : :Chapter 9
    00:46:13.145 : :Chapter 10
    00:50:51.923 : :Chapter 11
    00:53:43.220 : :Chapter 12
    01:00:21.367 : :Chapter 13
    01:06:48.212 : :Chapter 14
    01:10:58.962 : :Chapter 15
    01:15:14.092 : :Chapter 16
    01:18:55.647 : :Chapter 17
    01:26:11.040 : :Chapter 18
    01:29:39.999 : :Chapter 19
    01:36:43.547 : :Chapter 20
    01:41:44.389 : :Chapter 21
    01:49:06.414 : :Chapter 22
    01:55:52.820 : :Chapter 23
    01:59:39.213 : :Chapter 24
    02:04:19.743 : :Chapter 25
    02:09:28.510 : :Chapter 26
    02:14:05.662 : :Chapter 27
    02:19:42.374 : :Chapter 28

    Скриншоты

    Скачать .torrent

    Скачать торрент-файл бесплатно и на максимальной скорости!

    Как скачивать? · Что такое торрент? · Рейтинг и ограничения

    !ВНИМАНИЕ!
    Сайт не распространяет и не хранит электронные версии произведений, а занимается лишь лишь предоставлением доступа к создаваемому пользователями каталогу ссылок на торрент-файлы, которые содержат только списки хеш-сумм, убедительная просьба с жалобами обращаться напрямую к пользователю. Файлы для обмена на трекере предоставлены пользователями сайта, и администрация не несёт ответственности за их содержание. Просьба не заливать файлы, защищенные авторскими правами, а также файлы нелегального содержания!


    _________________
    [Профиль] [ЛС]
    Показать сообщения:    
    Ответить на тему

    Текущее время: Сегодня, в 12:03

    Часовой пояс: GMT + 2



    Вы не можете начинать темы
    Вы не можете отвечать на сообщения
    Вы не можете редактировать свои сообщения
    Вы не можете удалять свои сообщения
    Вы не можете голосовать в опросах
    Вы не можете прикреплять файлы к сообщениям
    Вы не можете скачивать файлы